找回密码

蓝光电影网

查看: 253|回复: 7

[2160p] 在一起 Together.2021.2160p.WEB-DL.x265.10bit.SDR.DD5.1-NOGRP 8.00GB

[复制链接]
蓝光币
382
发表于 3 天前 | 显示全部楼层 |阅读模式


◎译  名 在一路
◎片  名 Together
◎年  代 2021
◎产  地 英国
◎类  别 剧情
◎语  言 英语
◎上映日期 2021-06-17(英国) / 2021-08-27(美国)
◎豆瓣评分 /10 from 0 users
◎豆瓣链接 https://movie.douban.com/subject/35462126/
◎片  长 91分钟
◎导  演 史蒂芬·感德利 Stephen Daldry /  Justin Martin
◎编  剧 丹尼斯·凯利 Dennis Kelly
◎主  演 詹姆斯·麦卡沃伊 James McAvoy
       莎朗·豪根 Sharon Horgan
◎标  签 2021 | 英国 | JamesMcAvoy | 疫情 | 家庭 | BBC | 笑剧 | 剧情
◎简  介


  报告一对因疫情封城而隔离在家的夫妻,起头重新审阅自己以及两人的关系。
  1. Video
  2. ID                                       : 1
  3. Format                                   : HEVC
  4. Format/Info                              : High Efficiency Video Coding
  5. Format profile                           : Main [email protected]@High
  6. Codec ID                                 : V_MPEGH/ISO/HEVC
  7. Duration                                 : 1 h 32 min
  8. Bit rate                                 : 12.0 Mb/s
  9. Width                                    : 3 836 pixels
  10. Height                                   : 1 920 pixels
  11. Display aspect ratio                     : 1.998
  12. Frame rate mode                          : Constant
  13. Frame rate                               : 23.976 FPS
  14. Color space                              : YUV
  15. Chroma subsampling                       : 4:2:0
  16. Bit depth                                : 10 bits
  17. Bits/(Pixel*Frame)                       : 0.068
  18. Stream size                              : 7.75 GiB (97%)
  19. Default                                  : Yes
  20. Forced                                   : No
  21. Color range                              : Limited
  22. Color primaries                          : BT.709
  23. Transfer characteristics                 : BT.709
  24. Matrix coefficients                      : BT.709

  25. Audio
  26. ID                                       : 2
  27. Format                                   : AC-3
  28. Format/Info                              : Audio Coding 3
  29. Commercial name                          : Dolby Digital
  30. Codec ID                                 : A_AC3
  31. Duration                                 : 1 h 32 min
  32. Bit rate mode                            : Constant
  33. Bit rate                                 : 384 kb/s
  34. Channel(s)                               : 6 channels
  35. Channel layout                           : L R C LFE Ls Rs
  36. Sampling rate                            : 48.0 kHz
  37. Frame rate                               : 31.250 FPS (1536 SPF)
  38. Compression mode                         : Lossy
  39. Stream size                              : 253 MiB (3%)
  40. Title                                    : British English
  41. Language                                 : English
  42. Service kind                             : Complete Main
  43. Default                                  : Yes
  44. Forced                                   : No

  45. Text #1
  46. ID                                       : 3
  47. Format                                   : UTF-8
  48. Codec ID                                 : S_TEXT/UTF8
  49. Codec ID/Info                            : UTF-8 Plain Text
  50. Duration                                 : 1 h 29 min
  51. Bit rate                                 : 103 b/s
  52. Count of elements                        : 1981
  53. Stream size                              : 67.7 KiB (0%)
  54. Language                                 : English
  55. Default                                  : Yes
  56. Forced                                   : No

  57. Text #2
  58. ID                                       : 4
  59. Format                                   : UTF-8
  60. Codec ID                                 : S_TEXT/UTF8
  61. Codec ID/Info                            : UTF-8 Plain Text
  62. Duration                                 : 1 h 29 min
  63. Bit rate                                 : 79 b/s
  64. Count of elements                        : 1570
  65. Stream size                              : 51.7 KiB (0%)
  66. Title                                    : Spanish
  67. Language                                 : Spanish
  68. Default                                  : No
  69. Forced                                   : No
复制代码




                                       
                                       

                                       
                                       
                                       




回复

使用道具 举报

蓝光币
178
发表于 前天 08:27 | 显示全部楼层

楼主太厉害了!楼主,电影应该很好看我觉得蓝光电影网真是个好地方!
回复 支持 反对

使用道具 举报

蓝光币
507
发表于 前天 10:07 | 显示全部楼层

既然你诚信诚意的推荐了,那我就勉为其难的看看吧!蓝光电影网不走平凡路。
回复 支持 反对

使用道具 举报

蓝光币
407
发表于 前天 11:06 | 显示全部楼层
不错,收下了。
回复 支持 反对

使用道具 举报

蓝光币
22
发表于 前天 11:27 | 显示全部楼层

这东西我收了!谢谢楼主!蓝光电影网真好!
回复 支持 反对

使用道具 举报

蓝光币
4
发表于 前天 11:40 | 显示全部楼层
楼主发贴辛苦了,谢谢楼主分享!我觉得蓝光电影网是注册对了!
回复 支持 反对

使用道具 举报

蓝光币
2931
发表于 前天 13:01 | 显示全部楼层

既然你诚信诚意的推荐了,那我就勉为其难的看看吧!蓝光电影网不走平凡路。
回复 支持 反对

使用道具 举报

蓝光币
178
发表于 昨天 08:28 | 显示全部楼层
楼主发贴辛苦了,谢谢楼主分享!我觉得蓝光电影网是注册对了!
回复 支持 反对

使用道具 举报

懒得打字嘛,点击右侧快捷回复 【右侧内容,后台自定义】
您需要登录后才可以回帖 登录 | 立即加入

本版积分规则

Archiver|小黑屋| 蓝光电影网 |网站地图

Copyright © 2021 Comsenz Inc. Powered by 蓝光电影网

蓝光电影网

本站内容由用户自主分享和转载自互联网,转载目的在于传递更多信息,并不代表本网赞同其观点和对其真实性负责。

如有侵权、违反国家法律政策行为,请联系我们,我们会第一时间及时清除和处理!

举报反馈邮箱:[email protected]

快速回复 返回顶部 返回列表