找回密码

蓝光电影网

查看: 381|回复: 1

[科幻] 警告 Warning.2021.1080p.BluRay.x264-PiGNUS 5.91GB

[复制链接]
蓝光币
682
发表于 2021-10-29 09:38:58 | 显示全部楼层 |阅读模式


◎译  名 警告
◎片  名 Warning
◎年  代 2021
◎产  地 美国,加拿大
◎类  别 科幻 / 惊悚
◎语  言 英语
◎上映日期 2021-10-13(锡切斯奇异电影节) / 2021-10-22(美国)
◎豆瓣评分 5.0/10 from 289 users
◎豆瓣链接 https://movie.douban.com/subject/30321309/
◎片  长 85分钟
◎导  演 阿加塔?亚历山大 Agata Alexander
◎编  剧 阿加塔?亚历山大 Agata Alexander / 杰森?凯 Jason Kaye / 罗布·迈克尔森 Rob Michaelson
◎主  演 安娜贝拉·沃丽丝 Annabelle Wallis
       爱丽丝·伊芙 Alice Eve
       托马斯·简 Thomas Jane
       亚历克斯·帕蒂弗 Alex Pettyfer
       鲁伯特·艾弗雷特 Rupert Everett
       帕特里克·施瓦辛格 Patrick Schwarzenegger
       夏洛特·勒·邦 Charlotte Le Bon
       凯莉·班伯里 Kylie Bunbury
       本尼迪克特·萨缪尔 Benedict Samuel
       托马斯·科特 Tomasz Kot
       加朗斯·马里利埃 Garance Marillier
       托妮·伽恩 Toni Garrn
       安娜贝尔·穆利恩 Annabel Mullion
       理查德·帕蒂弗 Richard Pettyfer
◎标  签 科幻 | 美国 | 2021 | 美国电影 | 亚历克斯·帕蒂弗 | 爱丽丝·伊芙 | 鲁伯特·艾弗雷特 | 本尼迪克特·萨缪尔
◎简  介


  亚历克斯·帕蒂弗(《关键第四号》《魔力麦克》)、夏洛特·勒·邦(《云中行走》《伊夫圣罗兰传》)加盟科幻新片《警告》(Warning),詹姆斯·达西、劳拉·哈里尔、梅纳·马苏德(《阿拉丁》)参演,艺术家Agata Alexander献出电影长片导演首秀,并与Rob Michaelson、Jason Kaye编写剧本,冬季罗马尼亚开拍。
  
  该片气概类似《黑镜》,设定在不远的未来的地球上,探讨当截然分歧的生活发生碰撞时,孤独、灭亡和生命的意义。
  1. Video
  2. ID                                       : 1
  3. Format                                   : AVC
  4. Format/Info                              : Advanced Video Codec
  5. Format profile                           : [email protected]
  6. Format settings                          : CABAC / 5 Ref Frames
  7. Format settings, CABAC                   : Yes
  8. Format settings, Reference frames        : 5 frames
  9. Codec ID                                 : V_MPEG4/ISO/AVC
  10. Duration                                 : 1 h 25 min
  11. Bit rate                                 : 6 724 kb/s
  12. Width                                    : 1 920 pixels
  13. Height                                   : 804 pixels
  14. Display aspect ratio                     : 2.40:1
  15. Frame rate mode                          : Constant
  16. Frame rate                               : 23.976 (24000/1001/189150) FPS
  17. Color space                              : YUV
  18. Chroma subsampling                       : 4:2:0
  19. Bit depth                                : 8 bits
  20. Scan type                                : Progressive
  21. Bits/(Pixel*Frame)                       : 0.182
  22. Stream size                              : 4.03 GiB (68%)
  23. Writing library                          : x264 core 164 r3075 66a5bc1
  24. Encoding settings                        : cabac=1 / ref=5 / deblock=1:-3:-3 / analyse=0x3:0x133 / me=umh / subme=9 / psy=1 / psy_rd=1.00:0.00 / mixed_ref=1 / me_range=16 / chroma_me=1 / trellis=2 / 8x8dct=1 / cqm=0 / deadzone=21,11 / fast_pskip=1 / chroma_qp_offset=-2 / threads=25 / lookahead_threads=2 / sliced_threads=0 / nr=0 / decimate=1 / interlaced=0 / bluray_compat=0 / constrained_intra=0 / bframes=3 / b_pyramid=2 / b_adapt=2 / b_bias=0 / direct=3 / weightb=1 / open_gop=0 / weightp=2 / keyint=250 / keyint_min=23 / scenecut=40 / intra_refresh=0 / rc_lookahead=60 / rc=crf / mbtree=1 / crf=15.5 / qcomp=0.60 / qpmin=0 / qpmax=69 / qpstep=4 / ip_ratio=1.40 / aq=1:1.00
  25. Default                                  : Yes
  26. Forced                                   : No

  27. Audio
  28. ID                                       : 2
  29. Format                                   : DTS XLL
  30. Format/Info                              : Digital Theater Systems
  31. Commercial name                          : DTS-HD Master Audio
  32. Codec ID                                 : A_DTS
  33. Duration                                 : 1 h 25 min
  34. Bit rate mode                            : Variable
  35. Bit rate                                 : 3 119 kb/s
  36. Channel(s)                               : 6 channels
  37. Channel layout                           : C L R Ls Rs LFE
  38. Sampling rate                            : 48.0 kHz
  39. Frame rate                               : 93.750 FPS (512 SPF)
  40. Bit depth                                : 24 bits
  41. Compression mode                         : Lossless
  42. Stream size                              : 1.86 GiB (32%)
  43. Language                                 : English
  44. Default                                  : Yes
  45. Forced                                   : No

  46. Text #1
  47. ID                                       : 3
  48. Format                                   : PGS
  49. Muxing mode                              : zlib
  50. Codec ID                                 : S_HDMV/PGS
  51. Codec ID/Info                            : Picture based subtitle format used on BDs/HD-DVDs
  52. Duration                                 : 1 h 18 min
  53. Bit rate                                 : 33.4 kb/s
  54. Count of elements                        : 2046
  55. Stream size                              : 18.8 MiB (0%)
  56. Title                                    : English SDH
  57. Language                                 : English
  58. Default                                  : No
  59. Forced                                   : No

  60. Text #2
  61. ID                                       : 4
  62. Format                                   : PGS
  63. Muxing mode                              : zlib
  64. Codec ID                                 : S_HDMV/PGS
  65. Codec ID/Info                            : Picture based subtitle format used on BDs/HD-DVDs
  66. Duration                                 : 1 h 22 min
  67. Bit rate                                 : 26.7 kb/s
  68. Count of elements                        : 1680
  69. Stream size                              : 15.8 MiB (0%)
  70. Title                                    : Spanish
  71. Language                                 : Spanish
  72. Default                                  : No
  73. Forced                                   : No

  74. Menu
  75. 00:00:00.000                             : en:Chapter 01
  76. 00:04:18.633                             : en:Chapter 02
  77. 00:08:46.985                             : en:Chapter 03
  78. 00:13:54.667                             : en:Chapter 04
  79. 00:19:49.855                             : en:Chapter 05
  80. 00:23:20.566                             : en:Chapter 06
  81. 00:26:17.826                             : en:Chapter 07
  82. 00:30:25.365                             : en:Chapter 08
  83. 00:35:05.520                             : en:Chapter 09
  84. 00:43:54.674                             : en:Chapter 10
  85. 00:48:34.537                             : en:Chapter 11
  86. 00:54:31.351                             : en:Chapter 12
  87. 00:59:13.216                             : en:Chapter 13
  88. 01:04:56.351                             : en:Chapter 14
  89. 01:13:07.466                             : en:Chapter 15
  90. 01:17:13.629                             : en:Chapter 16
  91. 01:25:42.929                             : en:Chapter 17
复制代码





                                       
                                       

                                       
                                       
                                       




回复

使用道具 举报

蓝光币
43
发表于 2021-11-25 11:12:18 | 显示全部楼层
没有字幕吗????????
回复 支持 反对

使用道具 举报

懒得打字嘛,点击右侧快捷回复 【右侧内容,后台自定义】
您需要登录后才可以回帖 登录 | 立即加入

本版积分规则

Archiver|小黑屋| 蓝光电影网 |网站地图

Copyright © 2021 Comsenz Inc. Powered by 蓝光电影网

蓝光电影网

本站内容由用户自主分享和转载自互联网,转载目的在于传递更多信息,并不代表本网赞同其观点和对其真实性负责。

如有侵权、违反国家法律政策行为,请联系我们,我们会第一时间及时清除和处理!

举报反馈邮箱:[email protected]

快速回复 返回顶部 返回列表