找回密码

查看: 3733|回复: 4

[喜剧] 微交少女.May We Chat.2014.HK.BluRay.1920x808p.x264.AC3.2Audios-KOOK.[国粤双语.中英双字] 6.85

[复制链接]
蓝光币
1992
发表于 2017-12-19 20:53:15 | 显示全部楼层 |阅读模式
微交少女.May We Chat.2014.HK.BluRay.1920x808p.x264.AC3.2Audios-KOOK.[国粤双语.中英双字] 6.85GB
004311cardfof9afyekfk4.jpg
※※※※※※※ 影片信息 ※※※※※※※
◎片   名 微交少女
◎译   名 What s Up Girls / May We Chat
◎年   代 2014
◎国   家 香港
◎类   别 剧情 / 情色
◎语   言 粤语/国语
◎上映日 期 2014-06-19(香港)
◎字   幕 中英双字/简体字幕/繁体字幕/英笔墨幕
◎IMDB 评分  5.0/10 from 118 users
◎豆瓣 评分  4.6/10 from 1803 users
◎视频尺 寸  1920x808p
◎片   长 1.38.40
◎导   演 翁子光
◎编     剧  翁子光 / 吕筱华
◎主   演 主演: 温碧霞 / 许雅婷 / 蔚雨芯 / 何浩文 / 麥德和

◎简  介
     延续1982年卖座电影《靓妹仔》奇蹟,由《明媚时光》香港电影金像奖最好新晋导演提名翁子光编导、《天水围的日与夜》香港电影金像奖最好编剧吕筱华编剧、《囡囡》《爱好夜蒲》系列伍健雄监制,将今世社会颓废面孔及丢失少女的叛逆青春,再一次实在显现。三十年前,《靓妺仔》充份反应那时叛逆未成年少女实况,时至本日,时代变迁,2013年的未成年少女出售身材的情况变本加厉,由「鱼蛋妺」、「老泥妹」到现在的「援交妹」、「Part-time girlfriend」,她们已不是曩昔的「迫良为娼」、「为势所迫」,而是加倍「我行我素」、「没有负担」、「纵容失控」。
※※※※※※※ 参数信息 ※※※※※※※
General
Unique ID                      : 236596857953518459121369277886040971001 (0xB1FEE5B89A4113A981DFF3BFDA0516F9)
Format                         : Matroska
Format version                 : Version 4 / Version 2
File size                      : 6.85GB
Duration                       : 1 h 38 min
Overall bit rate               : 9 944 kb/s
Encoded date                   : UTC 2017-11-09 12:58:06
Writing application            : mkvmerge v9.4.2 ( So High ) 64bit
Writing library                : libebml v1.3.4 + libmatroska v1.4.5
Attachments                    : msyhbd.ttf / msyh.ttf / 正式海报 香港1.jpg
Video
ID                             : 1
Format                         : AVC
Format/Info                    : Advanced Video Codec
Format profile                 : High@L4.1
Format settings, CABAC         : Yes
Format settings, ReFrames      : 5 frames
Codec ID                       : V_MPEG4/ISO/AVC
Duration                       : 1 h 38 min
Bit rate                       : 8 874 kb/s
Width                          : 1 920 pixels
Height                         : 808 pixels
Display aspect ratio           : 2.40:1
Frame rate mode                : Constant
Frame rate                     : 23.976 (23976/1000) FPS
Original frame rate            : 24.000 FPS
Color space                    : YUV
Chroma subsampling             : 4:2:0
Bit depth                      : 8 bits
Scan type                      : Progressive
Bits/(Pixel*Frame)             : 0.239
Stream size                    : 6.11GB (89%)
Writing library                : x264 core 148 r2638 7599210
Encoding settings              : cabac=1 / ref=5 / deblock=1:0:0 / analyse=0x3:0x133 / me=umh / subme=7 / psy=1 / psy_rd=1.00:0.00 / mixed_ref=1 / me_range=16 / chroma_me=1 / trellis=1 / 8x8dct=1 / cqm=0 / deadzone=21,11 / fast_pskip=0 / chroma_qp_offset=-2 / threads=12 / lookahead_threads=2 / sliced_threads=0 / nr=0 / decimate=1 / interlaced=0 / bluray_compat=0 / constrained_intra=0 / bframes=3 / b_pyramid=2 / b_adapt=1 / b_bias=0 / direct=1 / weightb=1 / open_gop=0 / weightp=2 / keyint=250 / keyint_min=23 / scenecut=40 / intra_refresh=0 / rc_lookahead=40 / rc=2pass / mbtree=1 / bitrate=8874 / ratetol=1.0 / qcomp=0.60 / qpmin=0 / qpmax=69 / qpstep=4 / cplxblur=20.0 / qblur=0.5 / ip_ratio=1.40 / aq=1:1.00
Language                       : Chinese
Default                        : Yes
Forced                         : No
Audio #1
ID                             : 2
Format                         : AC-3
Format/Info                    : Audio Coding 3
Mode extension                 : CM (complete main)
Format settings, Endianness    : Big
Codec ID                       : A_AC3
Duration                       : 1 h 38 min
Bit rate mode                  : Constant
Bit rate                       : 640 kb/s
Channel(s)                     : 6 channels
Channel positions              : Front: L C R, Side: L R, LFE
Sampling rate                  : 48.0 kHz
Frame rate                     : 31.250 FPS (1536 spf)
Compression mode               : Lossy
Stream size                    : 452 MiB (6%)
Title                          : 粤语发音
Language                       : Chinese
Default                        : Yes
Forced                         : No
Audio #2
ID                             : 3
Format                         : AC-3
Format/Info                    : Audio Coding 3
Mode extension                 : CM (complete main)
Format settings, Endianness    : Big
Codec ID                       : A_AC3
Duration                       : 1 h 38 min
Bit rate mode                  : Constant
Bit rate                       : 384 kb/s
Channel(s)                     : 2 channels
Channel positions              : Front: L R
Sampling rate                  : 48.0 kHz
Frame rate                     : 31.250 FPS (1536 spf)
Compression mode               : Lossy
Stream size                    : 271 MiB (4%)
Title                          : 国语发音
Default                        : No
Forced                         : No
Text #1
ID                             : 4
Format                         : ASS
Codec ID                       : S_TEXT/ASS
Codec ID/Info                  : Advanced Sub Station Alpha
Duration                       : 1 h 36 min
Bit rate                       : 274 b/s
Count of elements              : 1277
Compression mode               : Lossless
Stream size                    : 194 KiB (0%)
Title                          : 中英字幕
Language                       : Chinese
Default                        : Yes
Forced                         : No
Text #2
ID                             : 5
Format                         : ASS
Codec ID                       : S_TEXT/ASS
Codec ID/Info                  : Advanced Sub Station Alpha
Duration                       : 1 h 36 min
Bit rate                       : 147 b/s
Count of elements              : 1266
Compression mode               : Lossless
Stream size                    : 104 KiB (0%)
Title                          : 简体字幕
Language                       : Chinese
Default                        : No
Forced                         : No
Text #3
ID                             : 6
Format                         : ASS
Codec ID                       : S_TEXT/ASS
Codec ID/Info                  : Advanced Sub Station Alpha
Duration                       : 1 h 36 min
Bit rate                       : 147 b/s
Count of elements              : 1266
Compression mode               : Lossless
Stream size                    : 104 KiB (0%)
Title                          : 繁体字幕
Language                       : Chinese
Default                        : No
Forced                         : No
Text #4
ID                             : 7
Format                         : ASS
Codec ID                       : S_TEXT/ASS
Codec ID/Info                  : Advanced Sub Station Alpha
Duration                       : 1 h 36 min
Bit rate                       : 179 b/s
Count of elements              : 1277
Compression mode               : Lossless
Stream size                    : 127 KiB (0%)
Title                          : 英笔墨幕
Language                       : English
Default                        : No
Forced                         : No
Menu
00:00:00.000                   : en:00:00:00.000
00:08:25.500                   : en:00:08:25.500
00:19:17.958                   : en:00:19:17.958
00:27:31.958                   : en:00:27:31.958
00:32:46.208                   : en:00:32:46.208
00:41:44.542                   : en:00:41:44.542
00:49:25.500                   : en:00:49:25.500
00:59:24.917                   : en:00:59:24.917
01:06:41.625                   : en:01:06:41.625
01:13:02.583                   : en:01:13:02.583
01:23:31.250                   : en:01:23:31.250
01:30:28.083                   : en:01:30:28.083
004312s77h77he377x7x7k.jpg






回复

使用道具 举报

蓝光币
115
发表于 2019-12-17 15:20:12 | 显示全部楼层

其实我一直觉得楼主的品味不错!呵呵!蓝光电影网太棒了!
回复

使用道具 举报

蓝光币
689
发表于 2020-7-10 19:09:36 | 显示全部楼层

这个帖子不回对不起自己!我想我是一天也不能离开蓝光电影网
回复

使用道具 举报

蓝光币
81
发表于 2022-3-28 09:49:02 | 显示全部楼层
微交少女微交少女微交少女
回复

使用道具 举报

懒得打字嘛,点击右侧快捷回复 【右侧内容,后台自定义】
您需要登录后才可以回帖 登录 | 立即加入

本版积分规则

Archiver| |网站地图

Copyright © 2024 Comsenz Inc. Powered by 蓝光电影网

本站内容由用户自主分享和转载自互联网,转载目的在于传递更多信息,并不代表本网赞同其观点和对其真实性负责。

如有侵权、违反国家法律政策行为,请联系我们,我们会第一时间及时清除和处理!

举报反馈邮箱:4k1080.com@gmail.com

快速回复 返回顶部 返回列表