找回密码

查看: 9349|回复: 2

[剧情] 艳舞女郎.Showgirls.1995.FR.BluRay.1920x800p.x264.DTS-KOOK.[中英双字] 9.36GB

[复制链接]
蓝光币
1992
发表于 2017-12-19 21:09:12 | 显示全部楼层 |阅读模式
艳舞女郎.Showgirls.1995.FR.BluRay.1920x800p.x264.DTS-KOOK.[中英双字] 9.36GB
223828sj9x96wijwfyuvji.jpg
223829hhyoznekd1zbe1ck.jpg
※※※※※※※ 影片信息 ※※※※※※※
◎片   名 Showgirls
◎译   名 艳舞女郎
◎年   代 1995
◎国   家 法国
◎类   别 剧情 / 情色
◎语   言 英语
◎上映日 期 1995-09-22
◎字   幕 中英双字/简体字幕/繁体字幕/英笔墨幕
◎IMDB 评分  4.7/10 from 53567 users
◎豆瓣 评分  6.8/10 from 6667 users
◎视频尺 寸  1920x800p
◎片   长 2.11.22
◎导   演 保罗·范霍文
◎编     剧  乔·埃泽特哈斯
◎主   演 伊丽莎白·伯克利 / 凯尔·麦克拉克伦 / 吉娜·格申 / 格伦·普拉默 / 罗伯特·戴维

◎简  介
  诺密(伊丽莎白·伯克利 Elizabeth Berkley 饰)是一位性感标致的女郎,年轻的她来到拉斯维加斯淘金,希望在这里能找到令她安身的工作。没想到,刚到此地,便被小混混骗走了行李,身无分文的她碰见了化装师克里斯特(吉娜·格申 Gina Gershon 饰),两人一见仍旧结下了深厚的友谊。诺密发现,想在拉斯维加斯获得一个饭碗实在是太难了,酷爱舞蹈的她最初决议加入当地最著名的艳舞团队。经过层层提拔,诺密获得了她的脚色,而一旦起头涉入这个复杂的声色天下中,她沦亡的速度就再也不会停止。原本自负自重的诺密,居然也起头为了向上成长而出售自己的精神。
  诺密越来越著名,但她和克里斯特的间隔也越来越远。为了填补这段友谊,诺密放置了克里斯特和她的偶像歌手碰头,没想到看似偶像实则禽兽,克里斯特惨遭侮辱住进医院,也击碎了诺密关于名声和金钱的最初的幻觉。
※※※※※※※ 参数信息 ※※※※※※※
General
Unique ID                      : 217688289025680632632103699500822780098 (0xA3C53D4BC9FB09A993846830EFCD58C2)
Format                         : Matroska
Format version                 : Version 4 / Version 2
File size                      : 9.37GB
Duration                       : 2 h 11 min
Overall bit rate               : 10.2 Mb/s
Movie name                     : Showgirls.1995.1080p.BluRay.x264.DTS-FGT
Encoded date                   : UTC 2017-11-12 04:24:29
Writing application            : mkvmerge v9.4.2 ( So High ) 64bit
Writing library                : libebml v1.3.4 + libmatroska v1.4.5
Attachments                    : msyhbd.ttf / msyh.ttf / 正式海报 法国.jpg
Video
ID                             : 2
Format                         : AVC
Format/Info                    : Advanced Video Codec
Format profile                 : Main@L4
Format settings, CABAC         : Yes
Format settings, ReFrames      : 1 frame
Format settings, GOP           : M=1, N=12
Codec ID                       : V_MPEG4/ISO/AVC
Duration                       : 2 h 11 min
Bit rate                       : 9 000 kb/s
Width                          : 1 920 pixels
Height                         : 800 pixels
Display aspect ratio           : 2.40:1
Frame rate mode                : Constant
Frame rate                     : 23.976 (23976/1000) FPS
Color space                    : YUV
Chroma subsampling             : 4:2:0
Bit depth                      : 8 bits
Scan type                      : Progressive
Bits/(Pixel*Frame)             : 0.244
Stream size                    : 7.95GB (85%)
Writing library                : x264 core 125
Encoding settings              : cabac=1 / ref=1 / deblock=1:0:0 / analyse=0x1:0x131 / me=hex / subme=6 / psy=1 / psy_rd=1.00:0.00 / mixed_ref=0 / me_range=16 / chroma_me=1 / trellis=0 / 8x8dct=0 / cqm=0 / deadzone=21,11 / fast_pskip=1 / chroma_qp_offset=-2 / threads=4 / lookahead_threads=1 / sliced_threads=0 / nr=0 / decimate=1 / interlaced=0 / bluray_compat=0 / constrained_intra=0 / bframes=0 / weightp=2 / keyint=12 / keyint_min=7 / scenecut=40 / intra_refresh=0 / rc_lookahead=12 / rc=abr / mbtree=1 / bitrate=9000 / ratetol=1.0 / qcomp=0.60 / qpmin=6 / qpmax=51 / qpstep=4 / ip_ratio=1.40 / aq=1:1.00
Default                        : Yes
Forced                         : No
Audio
ID                             : 1
Format                         : DTS
Format/Info                    : Digital Theater Systems
Mode                           : 16
Format settings, Endianness    : Big
Codec ID                       : A_DTS
Duration                       : 2 h 11 min
Bit rate mode                  : Constant
Bit rate                       : 1 509 kb/s
Channel(s)                     : 6 channels
Channel positions              : Front: L C R, Side: L R, LFE
Sampling rate                  : 48.0 kHz
Frame rate                     : 93.750 FPS (512 spf)
Bit depth                      : 24 bits
Compression mode               : Lossy
Stream size                    : 1.38GB (15%)
Language                       : English
Default                        : Yes
Forced                         : No
Text #1
ID                             : 3
Format                         : ASS
Codec ID                       : S_TEXT/ASS
Codec ID/Info                  : Advanced Sub Station Alpha
Duration                       : 2 h 3 min
Bit rate                       : 216 b/s
Count of elements              : 1386
Compression mode               : Lossless
Stream size                    : 196 KiB (0%)
Title                          : 中英字幕
Language                       : Chinese
Default                        : Yes
Forced                         : No
Text #2
ID                             : 4
Format                         : ASS
Codec ID                       : S_TEXT/ASS
Codec ID/Info                  : Advanced Sub Station Alpha
Duration                       : 2 h 3 min
Bit rate                       : 114 b/s
Count of elements              : 1386
Compression mode               : Lossless
Stream size                    : 104 KiB (0%)
Title                          : 简体字幕
Language                       : Chinese
Default                        : No
Forced                         : No
Text #3
ID                             : 5
Format                         : ASS
Codec ID                       : S_TEXT/ASS
Codec ID/Info                  : Advanced Sub Station Alpha
Duration                       : 2 h 3 min
Bit rate                       : 114 b/s
Count of elements              : 1386
Compression mode               : Lossless
Stream size                    : 104 KiB (0%)
Title                          : 繁体字幕
Language                       : Chinese
Default                        : No
Forced                         : No
Text #4
ID                             : 6
Format                         : ASS
Codec ID                       : S_TEXT/ASS
Codec ID/Info                  : Advanced Sub Station Alpha
Duration                       : 2 h 3 min
Bit rate                       : 146 b/s
Count of elements              : 1386
Compression mode               : Lossless
Stream size                    : 133 KiB (0%)
Title                          : 英笔墨幕
Language                       : English
Default                        : No
Forced                         : No
223830hgm8oemsrdngeqm3.jpg





回复

使用道具 举报

蓝光币
1108
发表于 2019-7-12 13:44:56 | 显示全部楼层

其实我一直觉得楼主的品味不错!呵呵!蓝光电影网太棒了!
回复

使用道具 举报

蓝光币
27
发表于 2020-7-10 13:46:16 | 显示全部楼层
无法下载
回复

使用道具 举报

懒得打字嘛,点击右侧快捷回复 【右侧内容,后台自定义】
您需要登录后才可以回帖 登录 | 立即加入

本版积分规则

Archiver| |网站地图

Copyright © 2024 Comsenz Inc. Powered by 蓝光电影网

本站内容由用户自主分享和转载自互联网,转载目的在于传递更多信息,并不代表本网赞同其观点和对其真实性负责。

如有侵权、违反国家法律政策行为,请联系我们,我们会第一时间及时清除和处理!

举报反馈邮箱:4k1080.com@gmail.com

快速回复 返回顶部 返回列表