找回密码

查看: 4136|回复: 4

[动画] 哆啦A梦:大雄的南极冰冰凉大冒险[国粤日三语/内封中字] Doraemon.Nobitas.Great.Adventure.in.the.Antarctic.Kachi.Kochi.2017.1080p.BluRay.x264.DTS-WiKi 8.50GB

[复制链接]
蓝光币
1992
发表于 2017-12-19 23:40:01 | 显示全部楼层 |阅读模式
185721x7qr7yfljfhf77lc.jpg
◎译  名 哆啦A梦:大雄的南极冰冰冷大冒险 / 哆啦A梦:大雄的南极冰寒大冒险
◎片  名 哆啦A梦:大雄的南极冰冰冷大冒险 ドラえもん のび太の南極カチコチ大冒険
◎年  代 2017
◎国  家 日本
◎类  别 动画 / 冒险
◎语  言 日语
◎上映日期 2017-05-30(中国大陆) / 2017-03-04(日本)
◎IMDb评分  6.8/10 from 172 users
◎IMDb链接  http://www.imdb.com/title/tt5912470/
◎豆瓣评分 6.6/10 from 13519 users
◎豆瓣链接 https://movie.douban.com/subject/26839466/
◎片  长 101分钟
◎导  演 高桥敦史
◎主  演 水田山葵 Wasabi Mizuta
      大原惠美 Megumi Oohara
      嘉数由美 Yumi Kakazu
      木村昴 Subaru Kimura
      关智一 Tomokazu Seki
      藤本千秋 Chiaki Fujimoto
      钉宫理惠 Rie Kugimiya
      金井美香 Mika Kanai
      三石琴乃 Kotono Mitsuishi

◎简  介 

  为了躲避夏日的盛暑,哆啦A梦(水天葵 配音)带着大雄(大原惠美 配音)、静香(嘉薮由美 配音)、胖虎(木村昴 配音)和小夫(关智一 配音)来到了漂泊在南承平洋中的一座冰山上。他们操纵道具“冰雕工艺组”打造了惊险刺激而又妙趣横生的游乐园,小伙伴们乐而忘返。可就在此时,乐园忽然垮塌,大雄则偶然从冰层中捡到了一枚金环。按照观察发现,金环居然是十万年前的产物。为了寻觅它的仆人,哆啦A梦一行穿越时空。在陈腐的南极,他们见到了一座奥秘都会,并发现了希奇的生物。
  而他们此次的冒险,将与本身以及地球的命运息息相关……



  1. Video
  2. ID                                       : 1
  3. Format                                   : AVC
  4. Format/Info                              : Advanced Video Codec
  5. Format profile                           : [email]High@L4.1[/email]
  6. Format settings                          : CABAC / 4 Ref Frames
  7. Format settings, CABAC                   : Yes
  8. Format settings, ReFrames                : 4 frames
  9. Codec ID                                 : V_MPEG4/ISO/AVC
  10. Duration                                 : 1 h 40 min
  11. Bit rate                                 : 10.5 Mb/s
  12. Width                                    : 1 920 pixels
  13. Height                                   : 1 080 pixels
  14. Display aspect ratio                     : 16:9
  15. Frame rate mode                          : Constant
  16. Frame rate                               : 23.976 (24000/1001) FPS
  17. Color space                              : YUV
  18. Chroma subsampling                       : 4:2:0
  19. Bit depth                                : 8 bits
  20. Scan type                                : Progressive
  21. Bits/(Pixel*Frame)                       : 0.210
  22. Stream size                              : 7.37GB (87%)
  23. Writing library                          : x264 core 129 r2245+704+36 8e61944 tMod+MixAQ [8-bit@4:2:0 X86_64]
  24. Encoding settings                        : cabac=1 / ref=4 / deblock=1:-1:-1 / analyse=0x3:0x133 / me=umh / subme=11 / psy=1 / fade_compensate=0.00 / psy_rd=0.60:0.00 / mixed_ref=1 / me_range=64 / chroma_me=1 / trellis=2 / 8x8dct=1 / cqm=0 / deadzone=21,11 / fast_pskip=0 / chroma_qp_offset=-2 / threads=18 / lookahead_threads=3 / sliced_threads=0 / nr=0 / decimate=0 / interlaced=0 / bluray_compat=0 / constrained_intra=0 / fgo=0 / bframes=10 / b_pyramid=2 / b_adapt=2 / b_bias=0 / direct=3 / weightb=1 / open_gop=0 / weightp=2 / keyint=250 / keyint_min=23 / scenecut=40 / intra_refresh=0 / rc=2pass / mbtree=0 / bitrate=10462 / ratetol=1.0 / qcomp=0.70 / qpmin=0 / qpmax=69 / qpstep=4 / cplxblur=20.0 / qblur=0.5 / ip_ratio=1.40 / pb_ratio=1.30 / aq=1 / aq-strength=0.95 / aq-sensitivity=10.00 / aq-ifactor=1.00 / aq-pfactor=1.00 / aq-bfactor=1.00 / aq2=0
  25. Language                                 : Japanese
  26. Default                                  : Yes
  27. Forced                                   : No

  28. Audio #1
  29. ID                                       : 2
  30. Format                                   : DTS
  31. Format/Info                              : Digital Theater Systems
  32. Codec ID                                 : A_DTS
  33. Duration                                 : 1 h 40 min
  34. Bit rate mode                            : Constant
  35. Bit rate                                 : 768 kb/s
  36. Channel(s)                               : 6 channels
  37. Channel positions                        : Front: L C R, Side: L R, LFE
  38. Sampling rate                            : 48.0 kHz
  39. Frame rate                               : 93.750 FPS (512 SPF)
  40. Bit depth                                : 24 bits
  41. Compression mode                         : Lossy
  42. Stream size                              : 554 MiB (6%)
  43. Language                                 : Japanese
  44. Default                                  : Yes
  45. Forced                                   : No

  46. Audio #2
  47. ID                                       : 3
  48. Format                                   : AC-3
  49. Format/Info                              : Audio Coding 3
  50. Codec ID                                 : A_AC3
  51. Duration                                 : 1 h 40 min
  52. Bit rate mode                            : Constant
  53. Bit rate                                 : 640 kb/s
  54. Channel(s)                               : 6 channels
  55. Channel positions                        : Front: L C R, Side: L R, LFE
  56. Sampling rate                            : 48.0 kHz
  57. Frame rate                               : 31.250 FPS (1536 SPF)
  58. Bit depth                                : 16 bits
  59. Compression mode                         : Lossy
  60. Stream size                              : 462 MiB (5%)
  61. Title                                    : Cantonese
  62. Language                                 : Chinese
  63. Service kind                             : Complete Main
  64. Default                                  : No
  65. Forced                                   : No

  66. Audio #3
  67. ID                                       : 4
  68. Format                                   : AC-3
  69. Format/Info                              : Audio Coding 3
  70. Codec ID                                 : A_AC3
  71. Duration                                 : 1 h 40 min
  72. Bit rate mode                            : Constant
  73. Bit rate                                 : 192 kb/s
  74. Channel(s)                               : 2 channels
  75. Channel positions                        : Front: L R
  76. Sampling rate                            : 48.0 kHz
  77. Frame rate                               : 31.250 FPS (1536 SPF)
  78. Bit depth                                : 16 bits
  79. Compression mode                         : Lossy
  80. Stream size                              : 139 MiB (2%)
  81. Title                                    : Mandarin
  82. Language                                 : Chinese
  83. Service kind                             : Complete Main
  84. Default                                  : No
  85. Forced                                   : No

  86. Text #1
  87. ID                                       : 5
  88. Format                                   : UTF-8
  89. Codec ID                                 : S_TEXT/UTF8
  90. Codec ID/Info                            : UTF-8 Plain Text
  91. Duration                                 : 1 h 40 min
  92. Bit rate                                 : 44 b/s
  93. Count of elements                        : 1365
  94. Stream size                              : 32.9 KiB (0%)
  95. Title                                    : Mandarin_Simplified
  96. Language                                 : Chinese
  97. Default                                  : Yes
  98. Forced                                   : No

  99. Text #2
  100. ID                                       : 6
  101. Format                                   : UTF-8
  102. Codec ID                                 : S_TEXT/UTF8
  103. Codec ID/Info                            : UTF-8 Plain Text
  104. Duration                                 : 1 h 40 min
  105. Bit rate                                 : 44 b/s
  106. Count of elements                        : 1365
  107. Stream size                              : 32.9 KiB (0%)
  108. Title                                    : Mandarin_Traditional
  109. Language                                 : Chinese
  110. Default                                  : No
  111. Forced                                   : No

  112. Text #3
  113. ID                                       : 7
  114. Format                                   : UTF-8
  115. Codec ID                                 : S_TEXT/UTF8
  116. Codec ID/Info                            : UTF-8 Plain Text
  117. Duration                                 : 1 h 40 min
  118. Bit rate                                 : 49 b/s
  119. Count of elements                        : 1452
  120. Stream size                              : 36.7 KiB (0%)
  121. Title                                    : Cantonese_Simplified
  122. Language                                 : Chinese
  123. Default                                  : No
  124. Forced                                   : No

  125. Text #4
  126. ID                                       : 8
  127. Format                                   : UTF-8
  128. Codec ID                                 : S_TEXT/UTF8
  129. Codec ID/Info                            : UTF-8 Plain Text
  130. Duration                                 : 1 h 40 min
  131. Bit rate                                 : 49 b/s
  132. Count of elements                        : 1452
  133. Stream size                              : 36.7 KiB (0%)
  134. Title                                    : Cantonese_Traditional
  135. Language                                 : Chinese
  136. Default                                  : No
  137. Forced                                   : No

  138. Menu
  139. 00:00:00.000                             : en:00:00:00.000
  140. 00:09:56.637                             : en:00:09:56.637
  141. 00:17:24.877                             : en:00:17:24.877
  142. 00:21:49.016                             : en:00:21:49.016
  143. 00:28:04.683                             : en:00:28:04.683
  144. 00:33:54.532                             : en:00:33:54.532
  145. 00:39:47.259                             : en:00:39:47.259
  146. 00:49:16.953                             : en:00:49:16.953
  147. 00:54:24.594                             : en:00:54:24.594
  148. 00:58:08.818                             : en:00:58:08.818
  149. 01:04:17.144                             : en:01:04:17.144
  150. 01:10:45.282                             : en:01:10:45.282
  151. 01:18:47.597                             : en:01:18:47.597
  152. 01:24:24.058                             : en:01:24:24.058
  153. 01:28:42.066                             : en:01:28:42.066
  154. 01:35:54.749                             : en:01:35:54.749
  155. 01:40:27.021                             : en:01:40:27.021



复制代码
复制代码
185721xggu8piguv3lgdy8.jpg 185722esf4nf5ksvft5h0v.jpg 185722oud1dud0uda1dvz0.jpg 185722zs5lhlp3aabvl7ch.jpg 185723s7re8qe3ex1avjea.jpg 185723sorwwr3tjbwuy373.jpg







回复

使用道具 举报

蓝光币
200
发表于 2018-4-22 20:41:52 | 显示全部楼层
:)  :D  :lol
回复

使用道具 举报

懒得打字嘛,点击右侧快捷回复 【右侧内容,后台自定义】
您需要登录后才可以回帖 登录 | 立即加入

本版积分规则

Archiver| |网站地图

Copyright © 2024 Comsenz Inc. Powered by 蓝光电影网

本站内容由用户自主分享和转载自互联网,转载目的在于传递更多信息,并不代表本网赞同其观点和对其真实性负责。

如有侵权、违反国家法律政策行为,请联系我们,我们会第一时间及时清除和处理!

举报反馈邮箱:4k1080.com@gmail.com

快速回复 返回顶部 返回列表