找回密码

查看: 2050|回复: 1

[剧情] 公园/公园小情歌 Parks.2017.1080p.BluRay.x264-WiKi 9.74GB

[复制链接]
蓝光币
1984
发表于 2017-12-20 15:06:31 | 显示全部楼层 |阅读模式
204659xbdmw10sd0gg7bsf.jpg
◎译  名 公园 / 公园小情歌
◎片  名 公园 PARKS パークス
◎年  代 2017
◎国  家 日本
◎类  别 剧情 / 音乐
◎语  言 日语
◎上映日期 2017-04-22(日本)
◎IMDb评分  2.8/10 from 155 users
◎IMDb链接  http://www.imdb.com/title/tt5687380/
◎豆瓣评分 6.6/10 from 487 users
◎豆瓣链接 https://movie.douban.com/subject/26765233/
◎片  长 118分钟
◎导  演 濑田夏希
◎主  演 桥本爱 Ai Hashimoto
      永野芽郁 Mei Nagano
      染谷将太 Sh?ta Sometani
      石桥静河 Shizuka Ishibashi
      森冈龙 Ry? Morioka
      佐别史郎 Shir? Sano
      柾木玲弥 Reiya Masaki
      长尾宁音 Shizune Nagao
      黑田大辅 Daisuke Kuroda
      齐藤阳一郎 Yoichiro Saito

◎简  介 

  独居吉祥寺的大门生?纯(桥本爱),某天被找寻已故父亲昔日情人?佐知子的高中生ハル(永野芽郁)造访。一路寻觅佐知子的进程中,两人结识了佐知子的孙子?トキオ(染谷将太)。三人从归天的佐知子的遗物里找到录有ハル父亲和佐知子歌声的开盘式磁带,但磁带中途歌声戛但是止,是以,三人决议配合完成乐章.....



  1. Video
  2. ID                                       : 1
  3. Format                                   : AVC
  4. Format/Info                              : Advanced Video Codec
  5. Format profile                           : [email]High@L4.1[/email]
  6. Format settings                          : CABAC / 5 Ref Frames
  7. Format settings, CABAC                   : Yes
  8. Format settings, ReFrames                : 5 frames
  9. Codec ID                                 : V_MPEG4/ISO/AVC
  10. Duration                                 : 1 h 58 min
  11. Bit rate                                 : 11.1 Mb/s
  12. Width                                    : 1 920 pixels
  13. Height                                   : 804 pixels
  14. Display aspect ratio                     : 2.40:1
  15. Frame rate mode                          : Constant
  16. Frame rate                               : 23.976 FPS
  17. Color space                              : YUV
  18. Chroma subsampling                       : 4:2:0
  19. Bit depth                                : 8 bits
  20. Scan type                                : Progressive
  21. Bits/(Pixel*Frame)                       : 0.301
  22. Stream size                              : 9.21GB (95%)
  23. Writing library                          : x264 core 129 r2245+704+36 8e61944 tMod+MixAQ [8-bit@4:2:0 X86_64]
  24. Encoding settings                        : cabac=1 / ref=5 / deblock=1:-3:-3 / analyse=0x3:0x133 / me=umh / subme=11 / psy=1 / fade_compensate=0.00 / psy_rd=1.05:0.10 / mixed_ref=1 / me_range=64 / chroma_me=1 / trellis=2 / 8x8dct=1 / cqm=0 / deadzone=21,11 / fast_pskip=0 / chroma_qp_offset=-3 / threads=18 / lookahead_threads=3 / sliced_threads=0 / nr=0 / decimate=0 / interlaced=0 / bluray_compat=0 / constrained_intra=0 / fgo=0 / bframes=10 / b_pyramid=2 / b_adapt=2 / b_bias=0 / direct=3 / weightb=1 / open_gop=0 / weightp=2 / keyint=250 / keyint_min=23 / scenecut=40 / intra_refresh=0 / rc=2pass / mbtree=0 / bitrate=11138 / ratetol=1.0 / qcomp=0.70 / qpmin=0 / qpmax=69 / qpstep=4 / cplxblur=20.0 / qblur=0.5 / ip_ratio=1.40 / pb_ratio=1.30 / aq=1 / aq-strength=0.90 / aq-sensitivity=10.00 / aq-ifactor=1.00 / aq-pfactor=1.00 / aq-bfactor=1.00 / aq2=0
  25. Language                                 : Japanese
  26. Default                                  : Yes
  27. Forced                                   : No

  28. Audio
  29. ID                                       : 2
  30. Format                                   : AC-3
  31. Format/Info                              : Audio Coding 3
  32. Codec ID                                 : A_AC3
  33. Duration                                 : 1 h 58 min
  34. Bit rate mode                            : Constant
  35. Bit rate                                 : 640 kb/s
  36. Channel(s)                               : 6 channels
  37. Channel positions                        : Front: L C R, Side: L R, LFE
  38. Sampling rate                            : 48.0 kHz
  39. Frame rate                               : 31.250 FPS (1536 SPF)
  40. Bit depth                                : 16 bits
  41. Compression mode                         : Lossy
  42. Stream size                              : 542 MiB (5%)
  43. Language                                 : Japanese
  44. Service kind                             : Complete Main
  45. Default                                  : Yes
  46. Forced                                   : No

  47. Text #1
  48. ID                                       : 3
  49. Format                                   : UTF-8
  50. Codec ID                                 : S_TEXT/UTF8
  51. Codec ID/Info                            : UTF-8 Plain Text
  52. Duration                                 : 1 h 54 min
  53. Bit rate                                 : 32 b/s
  54. Count of elements                        : 1265
  55. Stream size                              : 27.4 KiB (0%)
  56. Title                                    : Simplified
  57. Language                                 : Chinese
  58. Default                                  : Yes
  59. Forced                                   : No

  60. Text #2
  61. ID                                       : 4
  62. Format                                   : UTF-8
  63. Codec ID                                 : S_TEXT/UTF8
  64. Codec ID/Info                            : UTF-8 Plain Text
  65. Duration                                 : 1 h 54 min
  66. Bit rate                                 : 32 b/s
  67. Count of elements                        : 1265
  68. Stream size                              : 27.4 KiB (0%)
  69. Title                                    : Traditional
  70. Language                                 : Chinese
  71. Default                                  : No
  72. Forced                                   : No

  73. Menu
  74. 00:00:00.000                             : en:00:00:00.000
  75. 00:04:10.750                             : en:00:04:10.750
  76. 00:10:38.137                             : en:00:10:38.137
  77. 00:16:24.775                             : en:00:16:24.775
  78. 00:26:45.353                             : en:00:26:45.353
  79. 00:44:33.962                             : en:00:44:33.962
  80. 00:56:07.947                             : en:00:56:07.947
  81. 01:12:13.996                             : en:01:12:13.996
  82. 01:29:04.339                             : en:01:29:04.339
  83. 01:41:17.738                             : en:01:41:17.738
  84. 01:52:11.057                             : en:01:52:11.057
  85. 01:53:59.707                             : en:01:53:59.707
  86. 01:58:25.098                             : en:01:58:25.098



复制代码
复制代码
204700py6q6a94d88fe6e0.jpg 204700ai6h0w1ix91giry9.jpg 204700j7o4zsu5oqu5p82h.jpg 204701woq9mqxx5hjzzol1.jpg 204701err3ffrwrfzdr5g5.jpg 204701k73g7us8sm3s3os6.jpg






回复

使用道具 举报

懒得打字嘛,点击右侧快捷回复 【右侧内容,后台自定义】
您需要登录后才可以回帖 登录 | 立即加入

本版积分规则

Archiver| |网站地图

Copyright © 2024 Comsenz Inc. Powered by 蓝光电影网

本站内容由用户自主分享和转载自互联网,转载目的在于传递更多信息,并不代表本网赞同其观点和对其真实性负责。

如有侵权、违反国家法律政策行为,请联系我们,我们会第一时间及时清除和处理!

举报反馈邮箱:4k1080.com@gmail.com

快速回复 返回顶部 返回列表