找回密码

查看: 3628|回复: 4

[剧情] 非凡任务/猎鹰 Extraordinary.Mission.2017.CHINESE.1080p.BluRay.REMUX.AVC.TrueHD.5.1-FGT 19.91GB

[复制链接]
蓝光币
1971
发表于 2017-12-20 23:33:05 | 显示全部楼层 |阅读模式
005235akq2h33didw4x2wu.jpg
◎译  名 非凡使命 / 猎鹰 / Extraordinary Mission
◎片  名 非凡使命
◎年  代 2017
◎国  家 中国大陆
◎类  别 剧情 / 行动 / 犯罪
◎语  言 汉语普通话
◎上映日期 2017-03-31(中国大陆)
◎IMDb评分6.6/10 from 124 users
◎IMDb链接http://www.imdb.com/title/tt6690310/
◎豆瓣评分 6.4/10 from 33382 users
◎豆瓣链接 https://movie.douban.com/subject/26616690/
◎片  长 122分钟
◎导  演 麦兆辉 / 潘耀明
◎主  演 黄轩 Xuan Huang
      段奕宏 Yihong Duan
      郎月婷 Yueting Lang
      祖峰 Feng Zu
      邢佳栋 Jiadong Xing
      王耀庆 David Wang
      王砚辉 Yanhui Wang
      丁勇岱 Yongdai Ding
      肖聪 Cong Xiao
      李晓川 Xiaochuan Li
      赵炳锐 Bingrui Zhao
      代乐乐 Lele Dai
      陶海 Hai Tao

◎简  介 

  林凯(黄轩 饰)是李开国(祖峰 饰)安插在贩毒团体的卧底,他慢慢渗透到“双鹰”贩毒团体后,发现幕背面子“老鹰”(段奕宏 饰)与八年前李开国作为卧底观察的贩毒团体有关,还软禁了那时李开国的下级,终极林凯与李开国奇妙配合摧毁了全部贩毒团体。



  1. Video
  2. ID             : 1
  3. Format           : AVC
  4. Format/Info          : Advanced Video Codec
  5. Format profile         : [email]High@L4.1[/email]
  6. Format settings, CABAC       : Yes
  7. Format settings, ReFrames      : 4 frames
  8. Codec ID           : V_MPEG4/ISO/AVC
  9. Duration           : 2 h 1 min
  10. Bit rate mode          : Variable
  11. Maximum bit rate         : 25.0 Mb/s
  12. Width            : 1 920 pixels
  13. Height           : 1 080 pixels
  14. Display aspect ratio       : 16:9
  15. Frame rate mode        : Constant
  16. Frame rate           : 24.000 FPS
  17. Standard           : NTSC
  18. Color space          : YUV
  19. Chroma subsampling       : 4:2:0
  20. Bit depth          : 8 bits
  21. Scan type          : Progressive
  22. Title            : Extraordinary.Mission.2017.CHINESE.1080p.BluRay.REMUX.AVC.TrueHD.5.1-FGT
  23. Language           : English
  24. Default            : No
  25. Forced           : No
  26. Color range          : Limited
  27. Color primaries        : BT.709
  28. Transfer characteristics     : BT.709
  29. Matrix coefficients        : BT.709

  30. Audio #1
  31. ID             : 2
  32. Format           : TrueHD
  33. Codec ID           : A_TRUEHD
  34. Duration           : 2 h 1 min
  35. Bit rate mode          : Variable
  36. Maximum bit rate         : 5 502 kb/s
  37. Channel(s)           : 6 channels
  38. Channel positions        : Front: L C R, Side: L R, LFE
  39. Sampling rate          : 96.0 kHz
  40. Frame rate           : 2 400.000 FPS (40 spf)
  41. Compression mode         : Lossless
  42. Title            : Extraordinary.Mission.2017.CHINESE.1080p.BluRay.REMUX.AVC.TrueHD.5.1-FGT
  43. Language           : Chinese
  44. Default            : Yes
  45. Forced           : No

  46. Audio #2
  47. ID             : 3
  48. Format           : AC-3
  49. Format/Info          : Audio Coding 3
  50. Format settings, Endianness    : Big
  51. Codec ID           : A_AC3
  52. Duration           : 2 h 1 min
  53. Bit rate mode          : Constant
  54. Bit rate           : 640 kb/s
  55. Channel(s)           : 6 channels
  56. Channel positions        : Front: L C R, Side: L R, LFE
  57. Sampling rate          : 48.0 kHz
  58. Frame rate           : 31.250 FPS (1536 spf)
  59. Bit depth          : 16 bits
  60. Compression mode         : Lossy
  61. Stream size          : 556 MiB (3%)
  62. Title            : Extraordinary.Mission.2017.CHINESE.1080p.BluRay.REMUX.AVC.TrueHD.5.1-FGT
  63. Language           : Chinese
  64. Service kind         : Complete Main
  65. Default            : No
  66. Forced           : No

  67. Audio #3
  68. ID             : 4
  69. Format           : AC-3
  70. Format/Info          : Audio Coding 3
  71. Format settings, Endianness    : Big
  72. Codec ID           : A_AC3
  73. Duration           : 2 h 1 min
  74. Bit rate mode          : Constant
  75. Bit rate           : 640 kb/s
  76. Channel(s)           : 6 channels
  77. Channel positions        : Front: L C R, Side: L R, LFE
  78. Sampling rate          : 48.0 kHz
  79. Frame rate           : 31.250 FPS (1536 spf)
  80. Bit depth          : 16 bits
  81. Compression mode         : Lossy
  82. Stream size          : 556 MiB (3%)
  83. Title            : Extraordinary.Mission.2017.CHINESE.1080p.BluRay.REMUX.AVC.TrueHD.5.1-FGT
  84. Language           : Chinese
  85. Service kind         : Complete Main
  86. Default            : No
  87. Forced           : No

  88. Text #1
  89. ID             : 5
  90. Format           : PGS
  91. Muxing mode          : zlib
  92. Codec ID           : S_HDMV/PGS
  93. Codec ID/Info          : Picture based subtitle format used on BDs/HD-DVDs
  94. Title            : English-PGS
  95. Language           : English
  96. Default            : Yes
  97. Forced           : No

  98. Text #2
  99. ID             : 6
  100. Format           : PGS
  101. Muxing mode          : zlib
  102. Codec ID           : S_HDMV/PGS
  103. Codec ID/Info          : Picture based subtitle format used on BDs/HD-DVDs
  104. Title            : Chinese-PGS
  105. Language           : Chinese
  106. Default            : No
  107. Forced           : No

  108. Text #3
  109. ID             : 7
  110. Format           : PGS
  111. Muxing mode          : zlib
  112. Codec ID           : S_HDMV/PGS
  113. Codec ID/Info          : Picture based subtitle format used on BDs/HD-DVDs
  114. Title            : Chinese-PGS
  115. Language           : Chinese
  116. Default            : No
  117. Forced           : No

  118. Menu
  119. 00:00:00.000         : en:Chapter 01
  120. 00:07:57.583         : en:Chapter 02
  121. 00:11:52.333         : en:Chapter 03
  122. 00:15:57.291         : en:Chapter 04
  123. 00:19:48.291         : en:Chapter 05
  124. 00:28:51.208         : en:Chapter 06
  125. 00:34:15.625         : en:Chapter 07
  126. 00:43:10.958         : en:Chapter 08
  127. 00:49:04.083         : en:Chapter 09
  128. 00:56:05.625         : en:Chapter 10
  129. 01:00:42.500         : en:Chapter 11
  130. 01:05:03.541         : en:Chapter 12
  131. 01:09:07.333         : en:Chapter 13
  132. 01:14:51.166         : en:Chapter 14
  133. 01:20:33.208         : en:Chapter 15
  134. 01:25:51.625         : en:Chapter 16
  135. 01:30:10.208         : en:Chapter 17
  136. 01:35:31.291         : en:Chapter 18
  137. 01:42:55.041         : en:Chapter 19
  138. 01:54:06.750         : en:Chapter 20



复制代码
复制代码
005235kolzpdzlkyifiz7r.jpg 005235s2zf94ucu922ktf2.jpg 005235jmmcy5ezssduy18j.jpg 005235qnigg696dqa1yf9k.jpg 005235jefbbyfy37yb9e3p.jpg 005235hf11b5668417hxzw.jpg





回复

使用道具 举报

蓝光币
17
发表于 2024-3-2 23:16:44 | 显示全部楼层
非凡任务……
回复

使用道具 举报

懒得打字嘛,点击右侧快捷回复 【右侧内容,后台自定义】
您需要登录后才可以回帖 登录 | 立即加入

本版积分规则

Archiver| |网站地图

Copyright © 2024 Comsenz Inc. Powered by 蓝光电影网

本站内容由用户自主分享和转载自互联网,转载目的在于传递更多信息,并不代表本网赞同其观点和对其真实性负责。

如有侵权、违反国家法律政策行为,请联系我们,我们会第一时间及时清除和处理!

举报反馈邮箱:4k1080.com@gmail.com

快速回复 返回顶部 返回列表