找回密码

查看: 6386|回复: 4

[奇幻] 金刚:骷髅岛 Kong.Skull.Island.2017.1080p.BluRay.REMUX.AVC.DTS-HD.MA.TrueHD.7.1.Atmos-FGT 32.79GB

[复制链接]
蓝光币
1974
发表于 2017-12-20 23:33:32 | 显示全部楼层 |阅读模式
005319gel11rf7r1r7s5e7.jpg
◎译  名 金刚:骷髅岛 / Skull Island
◎片  名 金刚:骷髅岛 Kong: Skull Island
◎年  代 2017
◎国  家 美国
◎类  别 行动 / 奇异 / 冒险
◎语  言 英语 / 越南语 / 日语
◎上映日期 2017-03-24(中国大陆) / 2017-02-28(伦敦首映) / 2017-03-10(美国)
◎IMDb评分6.9/10 from 107,434 users
◎IMDb链接http://www.imdb.com/title/tt3731562/
◎豆瓣评分 6.7/10 from 104991 users
◎豆瓣链接 https://movie.douban.com/subject/26309788/
◎片  长 119分钟
◎导  演 乔丹·沃格特-罗伯茨
◎主  演 汤姆·希德勒斯顿 Tom Hiddleston
      布丽·拉尔森 Brie Larson
      塞缪尔·杰克逊 Samuel L. Jackson
      约翰·古德曼 John Goodman
      景甜 Tian Jing
      约翰·C·赖利 John C. Reilly
      托比·凯贝尔 Toby Kebbell
      科里·霍金斯 Corey Hawkins
      汤姆·威尔金森 Tom Wilkinson
      托马斯·曼 Thomas Mann
      杰森·米切尔 Jason Mitchell
      谢伊·惠格姆 Shea Whigham
      约翰·奥提兹 John Ortiz
      尤金·科德罗 Eugene Cordero

◎简  介 

  上世纪70年月,一支集结了科考队员、探险家、战地摄影记者、甲士的探险队,冒险前往南承平洋上的奥秘岛屿——骷髅岛。他们的到来惊扰了岛上之神——史上最大金刚。经过一番惨烈的苦战以后,探险队员散落在了岛屿遍地。此时,队员们才意想到此次探险并不是一次纯真的科考使命,而是去摸索怪兽存在的证实。
  在这片与世隔断、危险密布的森林,无数怪异的史宿世物隐藏其中,时辰威胁着他们的生命。队员们还碰到了奥秘的原始部落,金刚的身世和其保护岛屿的缘由也被逐步揭开,本来,可骇阴森的骷髅岛上还蛰伏着更凶恶残暴的怪兽……



  1. Video
  2. ID             : 1
  3. Format           : AVC
  4. Format/Info          : Advanced Video Codec
  5. Format profile         : [email]High@L4.1[/email]
  6. Format settings, CABAC       : Yes
  7. Format settings, ReFrames      : 4 frames
  8. Codec ID           : V_MPEG4/ISO/AVC
  9. Duration           : 1 h 58 min
  10. Bit rate mode          : Variable
  11. Maximum bit rate         : 28.0 Mb/s
  12. Width            : 1 920 pixels
  13. Height           : 1 080 pixels
  14. Display aspect ratio       : 16:9
  15. Frame rate mode        : Constant
  16. Frame rate           : 23.976 (24000/1001) FPS
  17. Color space          : YUV
  18. Chroma subsampling       : 4:2:0
  19. Bit depth          : 8 bits
  20. Scan type          : Progressive
  21. Title            : Kong.Skull.Island.2017.1080p.BluRay.REMUX.AVC.DTS-HD.MA.TrueHD.7.1.Atmos-FGT
  22. Language           : English
  23. Default            : No
  24. Forced           : No

  25. Audio #1
  26. ID             : 2
  27. Format           : DTS
  28. Format/Info          : Digital Theater Systems
  29. Format profile         : MA / Core
  30. Mode             : 16
  31. Format settings, Endianness    : Big
  32. Codec ID           : A_DTS
  33. Duration           : 1 h 58 min
  34. Bit rate mode          : Variable / Constant
  35. Bit rate           : Unknown / 1 509 kb/s
  36. Channel(s)           : 8 channels / 6 channels
  37. Channel positions        : Front: L C R, Side: L R, Back: L R, LFE / Front: L C R, Side: L R, LFE
  38. Sampling rate          : 48.0 kHz
  39. Frame rate           : 93.750 FPS (512 spf)
  40. Bit depth          : 24 bits
  41. Compression mode         : Lossless / Lossy
  42. Title            : Kong.Skull.Island.2017.1080p.BluRay.REMUX.AVC.DTS-HD.MA.TrueHD.7.1.Atmos-FGT
  43. Language           : English
  44. Default            : Yes
  45. Forced           : No

  46. Audio #2
  47. ID             : 3
  48. Format           : TrueHD
  49. Format profile         : TrueHD+Atmos / TrueHD
  50. Codec ID           : A_TRUEHD
  51. Bit rate mode          : Variable
  52. Maximum bit rate         : 6 912 kb/s
  53. Channel(s)           : Object Based / 8 channels
  54. Channel positions        : Object Based / Front: L C R, Side: L R, Back: L R, LFE
  55. Sampling rate          :/ 48.0 kHz
  56. Frame rate           : 1 200.000 FPS (40 spf)
  57. Compression mode         : Lossless
  58. Title            : Kong.Skull.Island.2017.1080p.BluRay.REMUX.AVC.DTS-HD.MA.TrueHD.7.1.Atmos-FGT
  59. Language           : English
  60. Default            : No
  61. Forced           : No

  62. Audio #3
  63. ID             : 4
  64. Format           : AC-3
  65. Format/Info          : Audio Coding 3
  66. Format settings, Endianness    : Big
  67. Codec ID           : A_AC3
  68. Duration           : 1 h 58 min
  69. Bit rate mode          : Constant
  70. Bit rate           : 448 kb/s
  71. Channel(s)           : 6 channels
  72. Channel positions        : Front: L C R, Side: L R, LFE
  73. Sampling rate          : 48.0 kHz
  74. Frame rate           : 31.250 FPS (1536 spf)
  75. Bit depth          : 16 bits
  76. Compression mode         : Lossy
  77. Stream size          : 379 MiB (1%)
  78. Title            : Kong.Skull.Island.2017.1080p.BluRay.REMUX.AVC.DTS-HD.MA.TrueHD.7.1.Atmos-FGT
  79. Language           : English
  80. Service kind         : Complete Main
  81. Default            : No
  82. Forced           : No

  83. Audio #4
  84. ID             : 5
  85. Format           : DTS
  86. Format/Info          : Digital Theater Systems
  87. Format profile         : MA / Core
  88. Mode             : 16
  89. Format settings, Endianness    : Big
  90. Codec ID           : A_DTS
  91. Duration           : 1 h 58 min
  92. Bit rate mode          : Variable / Constant
  93. Bit rate           : Unknown / 1 509 kb/s
  94. Channel(s)           : 6 channels
  95. Channel positions        : Front: L C R, Side: L R, LFE
  96. Sampling rate          : 48.0 kHz
  97. Frame rate           : 93.750 FPS (512 spf)
  98. Bit depth          : 16 bits
  99. Compression mode         : Lossless / Lossy
  100. Title            : Kong.Skull.Island.2017.1080p.BluRay.REMUX.AVC.DTS-HD.MA.TrueHD.7.1.Atmos-FGT
  101. Language           : English
  102. Default            : No
  103. Forced           : No

  104. Audio #5
  105. ID             : 6
  106. Format           : DTS
  107. Format/Info          : Digital Theater Systems
  108. Mode             : 16
  109. Format settings, Endianness    : Big
  110. Codec ID           : A_DTS
  111. Duration           : 1 h 58 min
  112. Bit rate mode          : Constant
  113. Bit rate           : 1 509 kb/s
  114. Channel(s)           : 6 channels
  115. Channel positions        : Front: L C R, Side: L R, LFE
  116. Sampling rate          : 48.0 kHz
  117. Frame rate           : 93.750 FPS (512 spf)
  118. Bit depth          : 16 bits
  119. Compression mode         : Lossy
  120. Stream size          : 1.25GB (4%)
  121. Title            : Kong.Skull.Island.2017.1080p.BluRay.REMUX.AVC.DTS-HD.MA.TrueHD.7.1.Atmos-FGT
  122. Language           : English
  123. Default            : No
  124. Forced           : No

  125. Audio #6
  126. ID             : 7
  127. Format           : AC-3
  128. Format/Info          : Audio Coding 3
  129. Format settings, Endianness    : Big
  130. Codec ID           : A_AC3
  131. Duration           : 1 h 58 min
  132. Bit rate mode          : Constant
  133. Bit rate           : 448 kb/s
  134. Channel(s)           : 6 channels
  135. Channel positions        : Front: L C R, Side: L R, LFE
  136. Sampling rate          : 48.0 kHz
  137. Frame rate           : 31.250 FPS (1536 spf)
  138. Bit depth          : 16 bits
  139. Compression mode         : Lossy
  140. Stream size          : 379 MiB (1%)
  141. Title            : Kong.Skull.Island.2017.1080p.BluRay.REMUX.AVC.DTS-HD.MA.TrueHD.7.1.Atmos-FGT
  142. Language           : French
  143. Service kind         : Complete Main
  144. Default            : No
  145. Forced           : No

  146. Audio #7
  147. ID             : 8
  148. Format           : AC-3
  149. Format/Info          : Audio Coding 3
  150. Format settings, Endianness    : Big
  151. Codec ID           : A_AC3
  152. Duration           : 1 h 58 min
  153. Bit rate mode          : Constant
  154. Bit rate           : 448 kb/s
  155. Channel(s)           : 6 channels
  156. Channel positions        : Front: L C R, Side: L R, LFE
  157. Sampling rate          : 48.0 kHz
  158. Frame rate           : 31.250 FPS (1536 spf)
  159. Bit depth          : 16 bits
  160. Compression mode         : Lossy
  161. Stream size          : 379 MiB (1%)
  162. Title            : Kong.Skull.Island.2017.1080p.BluRay.REMUX.AVC.DTS-HD.MA.TrueHD.7.1.Atmos-FGT
  163. Language           : Spanish
  164. Service kind         : Complete Main
  165. Default            : No
  166. Forced           : No

  167. Audio #8
  168. ID             : 9
  169. Format           : AC-3
  170. Format/Info          : Audio Coding 3
  171. Format settings, Endianness    : Big
  172. Codec ID           : A_AC3
  173. Duration           : 1 h 58 min
  174. Bit rate mode          : Constant
  175. Bit rate           : 448 kb/s
  176. Channel(s)           : 6 channels
  177. Channel positions        : Front: L C R, Side: L R, LFE
  178. Sampling rate          : 48.0 kHz
  179. Frame rate           : 31.250 FPS (1536 spf)
  180. Bit depth          : 16 bits
  181. Compression mode         : Lossy
  182. Stream size          : 379 MiB (1%)
  183. Title            : Kong.Skull.Island.2017.1080p.BluRay.REMUX.AVC.DTS-HD.MA.TrueHD.7.1.Atmos-FGT
  184. Language           : Hindi
  185. Service kind         : Complete Main
  186. Default            : No
  187. Forced           : No

  188. Audio #9
  189. ID             : 10
  190. Format           : AC-3
  191. Format/Info          : Audio Coding 3
  192. Format settings, Endianness    : Big
  193. Codec ID           : A_AC3
  194. Duration           : 1 h 58 min
  195. Bit rate mode          : Constant
  196. Bit rate           : 448 kb/s
  197. Channel(s)           : 6 channels
  198. Channel positions        : Front: L C R, Side: L R, LFE
  199. Sampling rate          : 48.0 kHz
  200. Frame rate           : 31.250 FPS (1536 spf)
  201. Bit depth          : 16 bits
  202. Compression mode         : Lossy
  203. Stream size          : 379 MiB (1%)
  204. Title            : Kong.Skull.Island.2017.1080p.BluRay.REMUX.AVC.DTS-HD.MA.TrueHD.7.1.Atmos-FGT
  205. Language           : Russian
  206. Service kind         : Complete Main
  207. Default            : No
  208. Forced           : No

  209. Audio #10
  210. ID             : 11
  211. Format           : AC-3
  212. Format/Info          : Audio Coding 3
  213. Format settings, Endianness    : Big
  214. Codec ID           : A_AC3
  215. Duration           : 1 h 58 min
  216. Bit rate mode          : Constant
  217. Bit rate           : 448 kb/s
  218. Channel(s)           : 6 channels
  219. Channel positions        : Front: L C R, Side: L R, LFE
  220. Sampling rate          : 48.0 kHz
  221. Frame rate           : 31.250 FPS (1536 spf)
  222. Bit depth          : 16 bits
  223. Compression mode         : Lossy
  224. Stream size          : 379 MiB (1%)
  225. Title            : Kong.Skull.Island.2017.1080p.BluRay.REMUX.AVC.DTS-HD.MA.TrueHD.7.1.Atmos-FGT
  226. Language           : Tamil
  227. Service kind         : Complete Main
  228. Default            : No
  229. Forced           : No

  230. Audio #11
  231. ID             : 12
  232. Format           : AC-3
  233. Format/Info          : Audio Coding 3
  234. Format settings, Endianness    : Big
  235. Codec ID           : A_AC3
  236. Duration           : 1 h 58 min
  237. Bit rate mode          : Constant
  238. Bit rate           : 448 kb/s
  239. Channel(s)           : 6 channels
  240. Channel positions        : Front: L C R, Side: L R, LFE
  241. Sampling rate          : 48.0 kHz
  242. Frame rate           : 31.250 FPS (1536 spf)
  243. Bit depth          : 16 bits
  244. Compression mode         : Lossy
  245. Stream size          : 379 MiB (1%)
  246. Title            : Kong.Skull.Island.2017.1080p.BluRay.REMUX.AVC.DTS-HD.MA.TrueHD.7.1.Atmos-FGT
  247. Language           : Telugu
  248. Service kind         : Complete Main
  249. Default            : No
  250. Forced           : No

  251. Audio #12
  252. ID             : 13
  253. Format           : AC-3
  254. Format/Info          : Audio Coding 3
  255. Mode             : Dolby Digital
  256. Format settings, Endianness    : Big
  257. Codec ID           : A_AC3
  258. Duration           : 1 h 58 min
  259. Bit rate mode          : Constant
  260. Bit rate           : 192 kb/s
  261. Channel(s)           : 2 channels
  262. Channel positions        : Front: L R
  263. Sampling rate          : 48.0 kHz
  264. Frame rate           : 31.250 FPS (1536 spf)
  265. Bit depth          : 16 bits
  266. Compression mode         : Lossy
  267. Stream size          : 163 MiB (0%)
  268. Title            : Kong.Skull.Island.2017.1080p.BluRay.REMUX.AVC.DTS-HD.MA.TrueHD.7.1.Atmos-FGT
  269. Language           : English
  270. Service kind         : Complete Main
  271. Default            : No
  272. Forced           : No

  273. Text #1
  274. ID             : 14
  275. Format           : PGS
  276. Muxing mode          : zlib
  277. Codec ID           : S_HDMV/PGS
  278. Codec ID/Info          : Picture based subtitle format used on BDs/HD-DVDs
  279. Title            : English-PGS
  280. Language           : English
  281. Default            : Yes
  282. Forced           : No

  283. Text #2
  284. ID             : 15
  285. Format           : PGS
  286. Muxing mode          : zlib
  287. Codec ID           : S_HDMV/PGS
  288. Codec ID/Info          : Picture based subtitle format used on BDs/HD-DVDs
  289. Title            : French-PGS
  290. Language           : French
  291. Default            : No
  292. Forced           : No

  293. Text #3
  294. ID             : 16
  295. Format           : PGS
  296. Muxing mode          : zlib
  297. Codec ID           : S_HDMV/PGS
  298. Codec ID/Info          : Picture based subtitle format used on BDs/HD-DVDs
  299. Title            : Spanish-PGS
  300. Language           : Spanish
  301. Default            : No
  302. Forced           : No

  303. Text #4
  304. ID             : 17
  305. Format           : PGS
  306. Muxing mode          : zlib
  307. Codec ID           : S_HDMV/PGS
  308. Codec ID/Info          : Picture based subtitle format used on BDs/HD-DVDs
  309. Title            : Dutch-PGS
  310. Language           : Dutch
  311. Default            : No
  312. Forced           : No

  313. Text #5
  314. ID             : 18
  315. Format           : PGS
  316. Muxing mode          : zlib
  317. Codec ID           : S_HDMV/PGS
  318. Codec ID/Info          : Picture based subtitle format used on BDs/HD-DVDs
  319. Title            : Danish-PGS
  320. Language           : Danish
  321. Default            : No
  322. Forced           : No

  323. Text #6
  324. ID             : 19
  325. Format           : PGS
  326. Muxing mode          : zlib
  327. Codec ID           : S_HDMV/PGS
  328. Codec ID/Info          : Picture based subtitle format used on BDs/HD-DVDs
  329. Title            : Estonian-PGS
  330. Language           : Estonian
  331. Default            : No
  332. Forced           : No

  333. Text #7
  334. ID             : 20
  335. Format           : PGS
  336. Muxing mode          : zlib
  337. Codec ID           : S_HDMV/PGS
  338. Codec ID/Info          : Picture based subtitle format used on BDs/HD-DVDs
  339. Title            : Finnish-PGS
  340. Language           : Finnish
  341. Default            : No
  342. Forced           : No

  343. Text #8
  344. ID             : 21
  345. Format           : PGS
  346. Muxing mode          : zlib
  347. Codec ID           : S_HDMV/PGS
  348. Codec ID/Info          : Picture based subtitle format used on BDs/HD-DVDs
  349. Title            : Greek-PGS
  350. Language           : Greek
  351. Default            : No
  352. Forced           : No

  353. Text #9
  354. ID             : 22
  355. Format           : PGS
  356. Muxing mode          : zlib
  357. Codec ID           : S_HDMV/PGS
  358. Codec ID/Info          : Picture based subtitle format used on BDs/HD-DVDs
  359. Title            : Icelandic-PGS
  360. Language           : Icelandic
  361. Default            : No
  362. Forced           : No

  363. Text #10
  364. ID             : 23
  365. Format           : PGS
  366. Muxing mode          : zlib
  367. Codec ID           : S_HDMV/PGS
  368. Codec ID/Info          : Picture based subtitle format used on BDs/HD-DVDs
  369. Title            : Latvian-PGS
  370. Language           : Latvian
  371. Default            : No
  372. Forced           : No

  373. Text #11
  374. ID             : 24
  375. Format           : PGS
  376. Muxing mode          : zlib
  377. Codec ID           : S_HDMV/PGS
  378. Codec ID/Info          : Picture based subtitle format used on BDs/HD-DVDs
  379. Title            : Lithuanian-PGS
  380. Language           : Lithuanian
  381. Default            : No
  382. Forced           : No

  383. Text #12
  384. ID             : 25
  385. Format           : PGS
  386. Muxing mode          : zlib
  387. Codec ID           : S_HDMV/PGS
  388. Codec ID/Info          : Picture based subtitle format used on BDs/HD-DVDs
  389. Title            : Norwegian-PGS
  390. Language           : Norwegian
  391. Default            : No
  392. Forced           : No

  393. Text #13
  394. ID             : 26
  395. Format           : PGS
  396. Muxing mode          : zlib
  397. Codec ID           : S_HDMV/PGS
  398. Codec ID/Info          : Picture based subtitle format used on BDs/HD-DVDs
  399. Title            : Russian-PGS
  400. Language           : Russian
  401. Default            : No
  402. Forced           : No

  403. Text #14
  404. ID             : 27
  405. Format           : PGS
  406. Muxing mode          : zlib
  407. Codec ID           : S_HDMV/PGS
  408. Codec ID/Info          : Picture based subtitle format used on BDs/HD-DVDs
  409. Title            : Swedish-PGS
  410. Language           : Swedish
  411. Default            : No
  412. Forced           : No

  413. Text #15
  414. ID             : 28
  415. Format           : PGS
  416. Muxing mode          : zlib
  417. Codec ID           : S_HDMV/PGS
  418. Codec ID/Info          : Picture based subtitle format used on BDs/HD-DVDs
  419. Title            : French-FORCED-PGS
  420. Language           : French
  421. Default            : No
  422. Forced           : No

  423. Text #16
  424. ID             : 29
  425. Format           : PGS
  426. Muxing mode          : zlib
  427. Codec ID           : S_HDMV/PGS
  428. Codec ID/Info          : Picture based subtitle format used on BDs/HD-DVDs
  429. Title            : Spanish-FORCED-PGS
  430. Language           : Spanish
  431. Default            : No
  432. Forced           : No

  433. Text #17
  434. ID             : 30
  435. Format           : PGS
  436. Muxing mode          : zlib
  437. Codec ID           : S_HDMV/PGS
  438. Codec ID/Info          : Picture based subtitle format used on BDs/HD-DVDs
  439. Title            : Hindi-FORCED-PGS
  440. Language           : Hindi
  441. Default            : No
  442. Forced           : No

  443. Text #18
  444. ID             : 31
  445. Format           : PGS
  446. Muxing mode          : zlib
  447. Codec ID           : S_HDMV/PGS
  448. Codec ID/Info          : Picture based subtitle format used on BDs/HD-DVDs
  449. Title            : Russian-FORCED-PGS
  450. Language           : Russian
  451. Default            : No
  452. Forced           : No

  453. Text #19
  454. ID             : 32
  455. Format           : PGS
  456. Muxing mode          : zlib
  457. Codec ID           : S_HDMV/PGS
  458. Codec ID/Info          : Picture based subtitle format used on BDs/HD-DVDs
  459. Title            : Tamil-FORCED-PGS
  460. Language           : Tamil
  461. Default            : No
  462. Forced           : No

  463. Text #20
  464. ID             : 33
  465. Format           : PGS
  466. Muxing mode          : zlib
  467. Codec ID           : S_HDMV/PGS
  468. Codec ID/Info          : Picture based subtitle format used on BDs/HD-DVDs
  469. Title            : Telugu-FORCED-PGS
  470. Language           : Telugu
  471. Default            : No
  472. Forced           : No

  473. Menu
  474. 00:00:00.000         : en:Chapter 01
  475. 00:08:54.742         : en:Chapter 02
  476. 00:19:51.773         : en:Chapter 03
  477. 00:30:01.132         : en:Chapter 04
  478. 00:40:00.106         : en:Chapter 05
  479. 00:50:13.260         : en:Chapter 06
  480. 01:00:49.729         : en:Chapter 07
  481. 01:10:29.600         : en:Chapter 08
  482. 01:18:05.889         : en:Chapter 09
  483. 01:30:12.657         : en:Chapter 10
  484. 01:39:09.026         : en:Chapter 11
  485. 01:47:05.836         : en:Chapter 12



复制代码
复制代码
005319gimzihh84hxahij0.jpg 005319i5oaaeeeydyomka8.jpg 005320dnk3939nv13lgd9n.jpg 005320o8ahb8z83zlobo99.jpg 005320i32vfaadsgm5fzfa.jpg 005320psl3fpfzzl3lo99w.jpg





回复

使用道具 举报

懒得打字嘛,点击右侧快捷回复 【右侧内容,后台自定义】
您需要登录后才可以回帖 登录 | 立即加入

本版积分规则

Archiver| |网站地图

Copyright © 2024 Comsenz Inc. Powered by 蓝光电影网

本站内容由用户自主分享和转载自互联网,转载目的在于传递更多信息,并不代表本网赞同其观点和对其真实性负责。

如有侵权、违反国家法律政策行为,请联系我们,我们会第一时间及时清除和处理!

举报反馈邮箱:4k1080.com@gmail.com

快速回复 返回顶部 返回列表