找回密码

查看: 3989|回复: 10

[剧情] 天才少女/天才的礼物 Gifted.2017.1080p.BluRay.REMUX.AVC.DTS-HD.MA.5.1-FGT 25.91GB

[复制链接]
蓝光币
1974
发表于 2017-12-21 00:05:35 | 显示全部楼层 |阅读模式
103840fxlrrwrowr0r8olu.jpg
◎译  名 天赋少女 / 天赋的礼物 / 天赋 / 天赋
◎片  名 天赋少女 Gifted
◎年  代 2017
◎国  家 美国
◎类  别 剧情 / 家庭
◎语  言 英语
◎上映日期 2017-04-12(美国)
◎IMDb评分7.7/10 from 18,990 users
◎IMDb链接http://www.imdb.com/title/tt4481414/
◎豆瓣评分 8.1/10 from 23993 users
◎豆瓣链接 https://movie.douban.com/subject/26593587/
◎片  长 101分钟
◎导  演 马克·韦布
◎主  演 克里斯·埃文斯 Chris Evans
      麦肯娜·格瑞丝 Mckenna Grace
      琳赛·邓肯 Lindsay Duncan
      珍妮·斯蕾特 Jenny Slate
      奥克塔维亚·斯宾瑟 Octavia Spencer
      迈克尔·肯德尔·卡普兰 Michael Kendall Kaplan
      约翰·M·杰克逊 John M. Jackson
      格伦·普拉默 Glenn Plummer
      约翰·芬 John Finn
      伊丽莎白·玛维尔 Elizabeth Marvel
      坎迪斯·B·哈里斯 Candace B. Harris
      乔恩·斯克拉夫 Jon Sklaroff
      乔娜·肖 Jona Xiao
      朱莉·安·埃默里 Julie Ann Emery
      吉尔·奥唐奈 Keir O'Donnell

◎简  介 

  Chris Evans将参演马克·韦布(超凡蜘蛛侠系列)执导新片《Gifted》。该片报告美队饰演一位原本波士顿大学助教现在是修船工的Frank Adler在姐姐自杀后领养了外甥女Mary——一位智力过人的天赋少女。Mary刚一入学就表示得与众分歧,但是舅舅Frank只想让孩子过普通人生活。Mary的外婆得知了少女的天赋,出现在二人的生活里,要将Mary培育成数学天赋。因而一场抚养权之争起头了。



  1. Video
  2. ID             : 1
  3. Format           : AVC
  4. Format/Info          : Advanced Video Codec
  5. Format profile         : [email]High@L4.1[/email]
  6. Format settings, CABAC       : Yes
  7. Format settings, ReFrames      : 4 frames
  8. Codec ID           : V_MPEG4/ISO/AVC
  9. Duration           : 1 h 41 min
  10. Bit rate mode          : Variable
  11. Maximum bit rate         : 31.4 Mb/s
  12. Width            : 1 920 pixels
  13. Height           : 1 080 pixels
  14. Display aspect ratio       : 16:9
  15. Frame rate mode        : Constant
  16. Frame rate           : 23.976 (24000/1001) FPS
  17. Color space          : YUV
  18. Chroma subsampling       : 4:2:0
  19. Bit depth          : 8 bits
  20. Scan type          : Progressive
  21. Title            : Gifted.2017.1080p.BluRay.REMUX.AVC.DTS-HD.MA.5.1-FGT
  22. Language           : English
  23. Default            : No
  24. Forced           : No

  25. Audio #1
  26. ID             : 2
  27. Format           : DTS
  28. Format/Info          : Digital Theater Systems
  29. Format profile         : MA / Core
  30. Mode             : 16
  31. Format settings, Endianness    : Big
  32. Codec ID           : A_DTS
  33. Duration           : 1 h 41 min
  34. Bit rate mode          : Variable / Constant
  35. Bit rate           : Unknown / 1 509 kb/s
  36. Channel(s)           : 6 channels
  37. Channel positions        : Front: L C R, Side: L R, LFE
  38. Sampling rate          : 48.0 kHz
  39. Frame rate           : 93.750 FPS (512 spf)
  40. Bit depth          : 24 bits
  41. Compression mode         : Lossless / Lossy
  42. Title            : Gifted.2017.1080p.BluRay.REMUX.AVC.DTS-HD.MA.5.1-FGT
  43. Language           : English
  44. Default            : Yes
  45. Forced           : No

  46. Audio #2
  47. ID             : 3
  48. Format           : DTS
  49. Format/Info          : Digital Theater Systems
  50. Mode             : 16
  51. Format settings, Endianness    : Big
  52. Codec ID           : A_DTS
  53. Duration           : 1 h 41 min
  54. Bit rate mode          : Constant
  55. Bit rate           : 1 509 kb/s
  56. Channel(s)           : 6 channels
  57. Channel positions        : Front: L C R, Side: L R, LFE
  58. Sampling rate          : 48.0 kHz
  59. Frame rate           : 93.750 FPS (512 spf)
  60. Bit depth          : 24 bits
  61. Compression mode         : Lossy
  62. Stream size          : 1.07GB (4%)
  63. Title            : Gifted.2017.1080p.BluRay.REMUX.AVC.DTS-HD.MA.5.1-FGT
  64. Language           : English
  65. Default            : No
  66. Forced           : No

  67. Audio #3
  68. ID             : 4
  69. Format           : AC-3
  70. Format/Info          : Audio Coding 3
  71. Format settings, Endianness    : Big
  72. Codec ID           : A_AC3
  73. Duration           : 1 h 41 min
  74. Bit rate mode          : Constant
  75. Bit rate           : 448 kb/s
  76. Channel(s)           : 6 channels
  77. Channel positions        : Front: L C R, Side: L R, LFE
  78. Sampling rate          : 48.0 kHz
  79. Frame rate           : 31.250 FPS (1536 spf)
  80. Bit depth          : 16 bits
  81. Compression mode         : Lossy
  82. Stream size          : 324 MiB (1%)
  83. Title            : Gifted.2017.1080p.BluRay.REMUX.AVC.DTS-HD.MA.5.1-FGT
  84. Language           : English
  85. Service kind         : Complete Main
  86. Default            : No
  87. Forced           : No

  88. Audio #4
  89. ID             : 5
  90. Format           : AC-3
  91. Format/Info          : Audio Coding 3
  92. Format settings, Endianness    : Big
  93. Codec ID           : A_AC3
  94. Duration           : 1 h 41 min
  95. Bit rate mode          : Constant
  96. Bit rate           : 448 kb/s
  97. Channel(s)           : 6 channels
  98. Channel positions        : Front: L C R, Side: L R, LFE
  99. Sampling rate          : 48.0 kHz
  100. Frame rate           : 31.250 FPS (1536 spf)
  101. Bit depth          : 16 bits
  102. Compression mode         : Lossy
  103. Stream size          : 324 MiB (1%)
  104. Title            : Gifted.2017.1080p.BluRay.REMUX.AVC.DTS-HD.MA.5.1-FGT
  105. Language           : Spanish
  106. Service kind         : Complete Main
  107. Default            : No
  108. Forced           : No

  109. Audio #5
  110. ID             : 6
  111. Format           : AC-3
  112. Format/Info          : Audio Coding 3
  113. Format settings, Endianness    : Big
  114. Codec ID           : A_AC3
  115. Duration           : 1 h 41 min
  116. Bit rate mode          : Constant
  117. Bit rate           : 448 kb/s
  118. Channel(s)           : 6 channels
  119. Channel positions        : Front: L C R, Side: L R, LFE
  120. Sampling rate          : 48.0 kHz
  121. Frame rate           : 31.250 FPS (1536 spf)
  122. Bit depth          : 16 bits
  123. Compression mode         : Lossy
  124. Stream size          : 324 MiB (1%)
  125. Title            : Gifted.2017.1080p.BluRay.REMUX.AVC.DTS-HD.MA.5.1-FGT
  126. Language           : French
  127. Service kind         : Complete Main
  128. Default            : No
  129. Forced           : No

  130. Text #1
  131. ID             : 7
  132. Format           : PGS
  133. Muxing mode          : zlib
  134. Codec ID           : S_HDMV/PGS
  135. Codec ID/Info          : Picture based subtitle format used on BDs/HD-DVDs
  136. Title            : English-PGS
  137. Language           : English
  138. Default            : Yes
  139. Forced           : No

  140. Text #2
  141. ID             : 8
  142. Format           : PGS
  143. Muxing mode          : zlib
  144. Codec ID           : S_HDMV/PGS
  145. Codec ID/Info          : Picture based subtitle format used on BDs/HD-DVDs
  146. Title            : Spanish-PGS
  147. Language           : Spanish
  148. Default            : No
  149. Forced           : No

  150. Text #3
  151. ID             : 9
  152. Format           : PGS
  153. Muxing mode          : zlib
  154. Codec ID           : S_HDMV/PGS
  155. Codec ID/Info          : Picture based subtitle format used on BDs/HD-DVDs
  156. Title            : French-PGS
  157. Language           : French
  158. Default            : No
  159. Forced           : No

  160. Text #4
  161. ID             : 10
  162. Format           : PGS
  163. Muxing mode          : zlib
  164. Codec ID           : S_HDMV/PGS
  165. Codec ID/Info          : Picture based subtitle format used on BDs/HD-DVDs
  166. Title            : French-FORCED-PGS
  167. Language           : French
  168. Default            : No
  169. Forced           : No

  170. Menu
  171. 00:00:00.000         : en:Chapter 01
  172. 00:04:36.317         : en:Chapter 02
  173. 00:07:49.302         : en:Chapter 03
  174. 00:12:55.524         : en:Chapter 04
  175. 00:18:50.003         : en:Chapter 05
  176. 00:22:23.008         : en:Chapter 06
  177. 00:29:13.084         : en:Chapter 07
  178. 00:33:18.830         : en:Chapter 08
  179. 00:37:56.399         : en:Chapter 09
  180. 00:42:57.825         : en:Chapter 10
  181. 00:45:34.356         : en:Chapter 11
  182. 00:48:06.675         : en:Chapter 12
  183. 00:50:58.805         : en:Chapter 13
  184. 00:54:31.685         : en:Chapter 14
  185. 00:59:05.959         : en:Chapter 15
  186. 01:03:52.787         : en:Chapter 16
  187. 01:08:44.787         : en:Chapter 17
  188. 01:14:52.279         : en:Chapter 18
  189. 01:19:29.347         : en:Chapter 19
  190. 01:23:44.769         : en:Chapter 20
  191. 01:26:54.751         : en:Chapter 21
  192. 01:29:38.831         : en:Chapter 22
  193. 01:32:49.272         : en:Chapter 23
  194. 01:35:36.647         : en:Chapter 24



复制代码
复制代码
103840l45vr1ooro2r2yq7.jpg 103840pvj8fc6sw32ssfzm.jpg 103840vc29mnlmw9snn5mt.jpg 103840mdwwisamddjzbpaw.jpg 103840ko31m2d7xfp2x21z.jpg 103840ckmz8nqky8tyzml8.jpg

                                



回复

使用道具 举报

蓝光币
1135
发表于 2023-5-6 17:52:54 | 显示全部楼层

楼主,大恩不言谢了!蓝光电影网是最棒的!
回复

使用道具 举报

蓝光币
2
发表于 2023-12-22 16:18:04 | 显示全部楼层

楼主,我太崇拜你了!我想我是一天也不能离开蓝光电影网。
回复

使用道具 举报

蓝光币
2
发表于 2023-12-22 16:20:24 | 显示全部楼层

~ 珍惜+支持 ~
回复

使用道具 举报

懒得打字嘛,点击右侧快捷回复 【右侧内容,后台自定义】
您需要登录后才可以回帖 登录 | 立即加入

本版积分规则

Archiver| |网站地图

Copyright © 2024 Comsenz Inc. Powered by 蓝光电影网

本站内容由用户自主分享和转载自互联网,转载目的在于传递更多信息,并不代表本网赞同其观点和对其真实性负责。

如有侵权、违反国家法律政策行为,请联系我们,我们会第一时间及时清除和处理!

举报反馈邮箱:4k1080.com@gmail.com

快速回复 返回顶部 返回列表