找回密码

查看: 4245|回复: 8

[动作] 浪人/冷血悍将 Ronin.1998.REMASTERED.1080p.BluRay.REMUX.AVC.DTS-HD.MA.5.1-FGT 35.36GB

[复制链接]
蓝光币
1984
发表于 2017-12-21 00:34:26 | 显示全部楼层 |阅读模式
111659ffj8v31avpa2iex6.jpg
◎译  名 游勇 / 冷血悍将 / 罗宁
◎片  名 游勇 Ronin
◎年  代 1998
◎国  家 美国 / 英国
◎类  别 行动 / 惊悚 / 犯罪
◎语  言 英语 / 法语 / 俄语
◎上映日期 1998-09-25
◎IMDb评分7.3/10 from 151,992 users
◎IMDb链接http://www.imdb.com/title/tt0122690/
◎豆瓣评分 7.5/10 from 9351 users
◎豆瓣链接 https://movie.douban.com/subject/1295527/
◎片  长 122 分钟
◎导  演 约翰·弗兰克海默
◎主  演 罗伯特·德尼罗 Robert De Niro
      让·雷诺 Jean Reno
      娜塔莎· 麦克艾霍恩 Natascha McElhone
      斯特兰·斯卡斯加德 Stellan Skarsg?rd
      肖恩·宾 Sean Bean

◎简  介 

  一支由特种军队的退伍甲士组成的奥秘小组正在郊外的一间仓库接管店主使命,他们个个身怀特技,山姆(罗伯特·德尼罗 Robert De Niro 饰)是前中情局官员、文森特(让·雷诺 Jean Reno 饰)为前欧洲情报局官员、格雷戈(斯特兰·斯卡斯加德 Stellan Skarsg?rd 饰)则是德国电子专家,同时还有英国兵器专家史宾斯(肖恩·宾 Sean Bean 饰)和司机拉里。小组受命要攻击一支全部武装的车队并劫下一只奥秘的公文包。经过一系列剧烈追逐和枪战,小组总算拿到了箱子,却不意格雷戈居然变节了构造,携公文包潜逃并试图将其兜销给俄罗斯。但是,在随后的追回箱子进程中,变节似乎如诅咒般覆盖着小组,在一次次惶惑不安的追逐和辗转之下,成员们再也已没法分辨站在眼前的是敌是友……



  1. Video
  2. ID             : 1
  3. Format           : AVC
  4. Format/Info          : Advanced Video Codec
  5. Format profile         : [email]High@L4.1[/email]
  6. Format settings, CABAC       : Yes
  7. Format settings, ReFrames      : 3 frames
  8. Codec ID           : V_MPEG4/ISO/AVC
  9. Duration           : 2 h 1 min
  10. Bit rate mode          : Variable
  11. Nominal bit rate         : 35.0 Mb/s
  12. Maximum bit rate         : 38.0 Mb/s
  13. Width            : 1 920 pixels
  14. Height           : 1 080 pixels
  15. Display aspect ratio       : 16:9
  16. Frame rate mode        : Constant
  17. Frame rate           : 23.976 (24000/1001) FPS
  18. Color space          : YUV
  19. Chroma subsampling       : 4:2:0
  20. Bit depth          : 8 bits
  21. Scan type          : Progressive
  22. Bits/(Pixel*Frame)       : 0.704
  23. Title            : Ronin.1998.REMASTERED.1080p.BluRay.REMUX.AVC.DTS-HD.MA.5.1-FGT
  24. Writing library        : x264 core 148 r2705 3f5ed56
  25. Encoding settings        : cabac=1 / ref=4 / deblock=0:-1:-1 / analyse=0x3:0x133 / me=umh / subme=10 / psy=1 / psy_rd=1.00:0.15 / mixed_ref=1 / me_range=24 / chroma_me=1 / trellis=2 / 8x8dct=1 / cqm=0 / deadzone=21,11 / fast_pskip=1 / chroma_qp_offset=-3 / threads=12 / lookahead_threads=1 / sliced_threads=0 / slices=4 / nr=0 / decimate=1 / interlaced=0 / bluray_compat=1 / constrained_intra=0 / bframes=3 / b_pyramid=1 / b_adapt=2 / b_bias=0 / direct=3 / weightb=1 / open_gop=1 / weightp=1 / keyint=24 / keyint_min=1 / scenecut=40 / intra_refresh=0 / rc_lookahead=24 / rc=abr / mbtree=0 / bitrate=35000 / ratetol=1.0 / qcomp=0.30 / qpmin=0 / qpmax=69 / qpstep=4 / vbv_maxrate=38000 / vbv_bufsize=28500 / nal_hrd=vbr / filler=0 / ip_ratio=1.40 / pb_ratio=1.30 / aq=1:0.10
  26. Language           : English
  27. Default            : No
  28. Forced           : No
  29. Color range          : Limited
  30. Color primaries        : BT.709
  31. Transfer characteristics     : BT.709
  32. Matrix coefficients        : BT.709

  33. Audio #1
  34. ID             : 2
  35. Format           : DTS
  36. Format/Info          : Digital Theater Systems
  37. Format profile         : MA / Core
  38. Mode             : 16
  39. Format settings, Endianness    : Big
  40. Codec ID           : A_DTS
  41. Duration           : 2 h 1 min
  42. Bit rate mode          : Variable / Constant
  43. Bit rate           : Unknown / 768 kb/s
  44. Channel(s)           : 6 channels
  45. Channel positions        : Front: L C R, Side: L R, LFE
  46. Sampling rate          : 48.0 kHz
  47. Frame rate           : 93.750 FPS (512 spf)
  48. Bit depth          : 24 bits
  49. Compression mode         : Lossless / Lossy
  50. Title            : Ronin.1998.REMASTERED.1080p.BluRay.REMUX.AVC.DTS-HD.MA.5.1-FGT
  51. Language           : English
  52. Default            : Yes
  53. Forced           : No

  54. Audio #2
  55. ID             : 3
  56. Format           : DTS
  57. Format/Info          : Digital Theater Systems
  58. Mode             : 16
  59. Format settings, Endianness    : Big
  60. Codec ID           : A_DTS
  61. Duration           : 2 h 1 min
  62. Bit rate mode          : Constant
  63. Bit rate           : 768 kb/s
  64. Channel(s)           : 6 channels
  65. Channel positions        : Front: L C R, Side: L R, LFE
  66. Sampling rate          : 48.0 kHz
  67. Frame rate           : 93.750 FPS (512 spf)
  68. Bit depth          : 24 bits
  69. Compression mode         : Lossy
  70. Stream size          : 668 MiB (2%)
  71. Title            : Ronin.1998.REMASTERED.1080p.BluRay.REMUX.AVC.DTS-HD.MA.5.1-FGT
  72. Language           : English
  73. Default            : No
  74. Forced           : No

  75. Audio #3
  76. ID             : 4
  77. Format           : PCM
  78. Codec ID           : A_PCM/INT/LIT
  79. Duration           : 2 h 1 min
  80. Bit rate mode          : Constant
  81. Channel(s)           : 2 channels
  82. Sampling rate          : 48.0 kHz
  83. Bit depth          : 24 bits
  84. Title            : Ronin.1998.REMASTERED.1080p.BluRay.REMUX.AVC.DTS-HD.MA.5.1-FGT
  85. Language           : English
  86. Default            : No
  87. Forced           : No

  88. Audio #4
  89. ID             : 5
  90. Format           : AC-3
  91. Format/Info          : Audio Coding 3
  92. Format settings, Endianness    : Big
  93. Codec ID           : A_AC3
  94. Duration           : 2 h 1 min
  95. Bit rate mode          : Constant
  96. Bit rate           : 192 kb/s
  97. Channel(s)           : 2 channels
  98. Channel positions        : Front: L R
  99. Sampling rate          : 48.0 kHz
  100. Frame rate           : 31.250 FPS (1536 spf)
  101. Bit depth          : 16 bits
  102. Compression mode         : Lossy
  103. Stream size          : 167 MiB (0%)
  104. Title            : Ronin.1998.REMASTERED.1080p.BluRay.REMUX.AVC.DTS-HD.MA.5.1-FGT
  105. Language           : English
  106. Service kind         : Complete Main
  107. Default            : No
  108. Forced           : No

  109. Text #1
  110. ID             : 6
  111. Format           : PGS
  112. Muxing mode          : zlib
  113. Codec ID           : S_HDMV/PGS
  114. Codec ID/Info          : Picture based subtitle format used on BDs/HD-DVDs
  115. Title            : English-FORCED-PGS
  116. Language           : English
  117. Default            : Yes
  118. Forced           : Yes

  119. Text #2
  120. ID             : 7
  121. Format           : PGS
  122. Muxing mode          : zlib
  123. Codec ID           : S_HDMV/PGS
  124. Codec ID/Info          : Picture based subtitle format used on BDs/HD-DVDs
  125. Title            : English-PGS
  126. Language           : English
  127. Default            : No
  128. Forced           : No

  129. Menu
  130. 00:00:00.000         : en:Chapter 01
  131. 00:10:28.961         : en:Chapter 02
  132. 00:17:22.082         : en:Chapter 03
  133. 00:31:22.171         : en:Chapter 04
  134. 00:41:19.101         : en:Chapter 05
  135. 00:51:35.717         : en:Chapter 06
  136. 01:01:21.344         : en:Chapter 07
  137. 01:09:05.599         : en:Chapter 08
  138. 01:25:48.852         : en:Chapter 09
  139. 01:35:04.782         : en:Chapter 10
  140. 01:39:40.683         : en:Chapter 11
  141. 01:53:46.402         : en:Chapter 12



复制代码
复制代码
111659f20s8a8sdg4nh060.jpg 111659n4htlnwwwtow0x2l.jpg 111659a98ss1f4263awsza.jpg 111659emh7eewp7435ez3j.jpg 111659ozi0qew44ambkbak.jpg 111659ewwaxwhw4rsoei2s.jpg



Ronin.1998.REMASTERED.1080p.BluRay.REMUX.AVC.DTS-HD.MA.5.1-FGT.torrent

88.96 KB, 下载次数: 106, 下载积分: 蓝光币 -2

回复

使用道具 举报

懒得打字嘛,点击右侧快捷回复 【右侧内容,后台自定义】
您需要登录后才可以回帖 登录 | 立即加入

本版积分规则

Archiver| |网站地图

Copyright © 2024 Comsenz Inc. Powered by 蓝光电影网

本站内容由用户自主分享和转载自互联网,转载目的在于传递更多信息,并不代表本网赞同其观点和对其真实性负责。

如有侵权、违反国家法律政策行为,请联系我们,我们会第一时间及时清除和处理!

举报反馈邮箱:4k1080.com@gmail.com

快速回复 返回顶部 返回列表