找回密码

查看: 5498|回复: 5

[爱情] 布达佩斯之恋.Gloomy.Sunday.1999.1080p.BluRay.REMUX.AVS.DTS-5.1.German amp;Mandarin.CHS

[复制链接]
蓝光币
1984
发表于 2017-12-21 10:46:17 | 显示全部楼层 |阅读模式
123559st54i4si6f6sk3ks.jpg
◎译  名 布达佩斯之恋/郁闷的星期天/郁闷星期天/狂琴难了/黑色星期天
◎片  名 Gloomy Sunday - Ein Lied von Liebe und Tod
◎年  代 1999
◎产  地 德国/匈牙利
◎类  别 恋爱/剧情
◎语  言 德语/英语/匈牙利语
◎上映日期 1999-10-21
◎IMDb评分7.9/10 from 6,087 users
◎IMDb链接http://www.imdb.com/title/tt0155722/
◎豆瓣评分 8.6/10 from 58,939 users
◎豆瓣链接 https://movie.douban.com/subject/1301106/
◎片  长 112 分钟/Argentina: 113 分钟(Mar del Plata Film Festival)
◎导  演 诺夫·舒贝尔 Rolf Schübel
◎主  演 艾丽卡·莫露珊 Erika Marozsán
      约阿希姆·克罗尔 Joachim Król
      斯特法诺·迪奥尼斯 Stefano Dionisi
      本·贝克 Ben Becker
      安德拉斯·巴林特 András Bálint
◎简  介
  人们总是难以顺从《郁闷星期天》的哀痛情调,本来这首歌与一段复杂凄美的恋爱故事有关。上世纪30年月的匈牙利都城布达佩斯的一个餐馆里,美丽的伊洛娜(艾丽卡·莫露珊 Erika Marozsán 饰)同时被两个汉子深爱着。一个是餐厅老板,另一个是钢琴师。三小我都并不愿意改变现况,打破平衡,伊洛娜同时具有两个汉子的爱而深感安静幸运。钢琴师为她创作出《郁闷星期天》,他和餐厅也是以一鸣惊人。
  但是,汉斯的出现完全扑灭了这一切。他已经是一个知名小子,深深迷上《郁闷星期天》 的同时,更是成为伊洛娜的裙下之臣。汉斯向伊洛娜求婚,却被拒绝,满腔恨意的他现在成了军官,风光无穷,正带着他蓄谋已久的复仇计划来到伊洛娜身旁,给他们的生活以致命一击。爱、复仇与战争的故事,在布达佩斯纠结上演。
General
Unique ID        : 207152297091648260597624412850732880186 (0x9BD814C9A32461A9A3B8E9E3A7D3513A)
Format         : Matroska
Format version    : Version 4 / Version 2
File size        : 31.4GB
Duration        : 1 h 54 min
Overall bit rate mode : Variable
Overall bit rate    : 39.3 Mb/s
Encoded date      : UTC 2017-09-24 10:34:10
Writing application   : mkvmerge v13.0.0 ( The Juggler ) 64bit
Writing library     : libebml v1.3.4 + libmatroska v1.4.5
Video
ID                : 1
Format            : AVC
Format/Info         : Advanced Video Codec
Format profile         : High@L4.1
Format settings, CABAC   : Yes
Format settings, RefFrames : 4 frames
Codec ID            : V_MPEG4/ISO/AVC
Duration           : 1 h 54 min
Bit rate mode         : Variable
Bit rate            : 35.0 Mb/s
Maximum bit rate      : 40.0 Mb/s
Width              : 1 920 pixels
Height             : 1 080 pixels
Display aspect ratio      : 16:9
Frame rate mode        : Constant
Frame rate           : 23.976 (24000/1001) FPS
Standard            : NTSC
Color space          : YUV
Chroma subsampling     : 4:2:0
Bit depth           : 8 bits
Scan type            : Progressive
Bits/(Pixel*Frame)      : 0.704
Stream size           : 27.9GB (89%)
Default             : Yes
Forced            : No
Color range         : Limited
Color primaries       : BT.709
Transfer characteristics   : BT.709
Matrix coefficients      : BT.709
Audio #1
ID         : 2
Format         : DTS
Format/Info      : Digital Theater Systems
Format profile     : MA / Core
Mode         : 16
Format settings, Endianness  : Big
Codec ID       : A_DTS
Duration       : 1 h 54 min
Bit rate mode      : Variable / Constant
Bit rate       : 3 709 kb/s / 1 509 kb/s
Channel(s)       : 6 channels
Channel positions    : Front: L C R, Side: L R, LFE
Sampling rate      : 48.0 kHz
Frame rate       : 93.750 FPS (512 SPF)
Bit depth        : 24 bits
Compression mode     : Lossless / Lossy
Stream size      : 2.96GB (9%)
Language       : German
Default        : Yes
Forced         : No
Audio #2
ID         : 3
Format         : AC-3
Format/Info      : Audio Coding 3
Format settings, Endianness  : Big
Codec ID       : A_AC3
Duration       : 1 h 54 min
Bit rate mode     : Constant
Bit rate          : 640 kb/s
Channel(s)        : 6 channels
Channel positions    : Front: L C R, Side: L R, LFE
Sampling rate      : 48.0 kHz
Frame rate       : 31.250 FPS (1536 SPF)
Bit depth         : 16 bits
Compression mode  : Lossy
Stream size       : 523 MiB (2%)
Language       : Chinese
Service kind       : Complete Main
Default         : No
Forced          : No
Text
ID           : 4
Format         : ASS
Codec ID        : S_TEXT/ASS
Codec ID/Info    : Advanced Sub Station Alpha
Duration       : 1 h 48 min
Bit rate        : 146 b/s
Count of elements   : 929
Compression mode  : Lossless
Stream size       : 116 KiB (0%)
Default        : Yes
Forced         : No
123559bkfkhga8ko78bmtv.jpg
123559kukkkbbxb3k5kz9u.jpg
123559f3i6ddk8z6hzo6xd.jpg
123559a0ggorj4r5eo400r.jpg




回复

使用道具 举报

蓝光币
6
发表于 2021-11-17 22:25:16 | 显示全部楼层
爱情电影,值得欣赏。
回复

使用道具 举报

懒得打字嘛,点击右侧快捷回复 【右侧内容,后台自定义】
您需要登录后才可以回帖 登录 | 立即加入

本版积分规则

Archiver| |网站地图

Copyright © 2024 Comsenz Inc. Powered by 蓝光电影网

本站内容由用户自主分享和转载自互联网,转载目的在于传递更多信息,并不代表本网赞同其观点和对其真实性负责。

如有侵权、违反国家法律政策行为,请联系我们,我们会第一时间及时清除和处理!

举报反馈邮箱:4k1080.com@gmail.com

快速回复 返回顶部 返回列表