找回密码

查看: 2890|回复: 0

[动画] 表情奇幻冒险 The.Emoji.Movie.2017.1080p.BluRay.REMUX.AVC.DTS-HD.MA.5.1-FGT 20.14GB

[复制链接]
蓝光币
1984
发表于 2017-12-21 11:17:06 | 显示全部楼层 |阅读模式
133752zpxmv93w7ow30rwz.jpg
◎译  名 脸色奇异冒险 / Emoji大电影:展现自我 / Emoji大冒险 / 脸色标记电影 / Emoji大电影 / Emoji / The Emoji Movie
◎片  名 脸色奇异冒险 Emoji Movie: Express Yourself
◎年  代 2017
◎国  家 美国
◎类  别 笑剧 / 动画 / 冒险
◎语  言 英语
◎上映日期 2017-12(中国大陆) / 2017-07-28(美国)
◎IMDb评分2.4/10 from 23,425 users
◎IMDb链接http://www.imdb.com/title/tt4877122/
◎豆瓣评分 5.3/10 from 480 users
◎豆瓣链接 https://movie.douban.com/subject/26577354/
◎片  长 86分钟
◎导  演 安东尼·莱昂迪斯
◎主  演 T·J·米勒 T.J. Miller
      詹姆斯·柯登 James Corden
      安娜·法瑞丝 Anna Faris
      玛娅·鲁道夫 Maya Rudolph
      史蒂夫·赖特 Steven Wright
      詹妮佛·库里奇 Jennifer Coolidge
      帕特里克·斯图尔特 Patrick Stewart
      克里斯蒂娜·阿奎莱拉 Christina Aguilera
      索菲娅·维加拉 Sofía Vergara
      瑞秋·雷 Rachael Ray
      西恩·海耶斯 Sean Hayes
      杰克·T·奥斯汀 Jake T. Austin
      塔蒂·加布里埃 Tati Gabrielle
      杰夫瑞·罗斯 Jeffrey Ross
      亨特·玛奇 Hunter March
      艾瑞克·希格尔 Eric Siegel
      肖恩·吉布朗尼 Sean Giambrone
      连姆·艾肯 Liam Aiken
      索姆·毕绍普斯 Thom Bishops
      凯文·张伯伦 Kevin Chamberlin
      亚当·布朗 Adam Brown
      乔·怀特 Joe Whyte
      康拉德·弗农 Conrad Vernon
      凯特·歌妮 Kate Gorney

◎简  介 

  由艾里克·西格尔(Eric Siegel)和安东尼·莱昂迪斯(Anthony Leondis)创作剧本,后者还将导演这部电影。
  按照先容,《Emoji大电影》有些像《脑筋奸细队》和《无敌破坏王》,报告的是一群脸色包在你的手机里的冒险。这群脸色包住在“Emoji山谷”里,他们的天下经过手机桌面与其他App的天下相连。
  据悉,索尼已经与很多家著名的App告竣协议,将会在电影中用到他们的App,其中包括音乐利用Spotify。



  1. Video
  2. ID             : 1
  3. Format           : AVC
  4. Format/Info          : Advanced Video Codec
  5. Format profile         : [email]High@L4.1[/email]
  6. Format settings, CABAC       : Yes
  7. Format settings, ReFrames      : 2 frames
  8. Format settings, GOP       : M=1, N=10
  9. Codec ID           : V_MPEG4/ISO/AVC
  10. Duration           : 1 h 26 min
  11. Bit rate mode          : Variable
  12. Width            : 1 920 pixels
  13. Height           : 1 080 pixels
  14. Display aspect ratio       : 16:9
  15. Frame rate mode        : Constant
  16. Frame rate           : 23.976 (24000/1001) FPS
  17. Color space          : YUV
  18. Chroma subsampling       : 4:2:0
  19. Bit depth          : 8 bits
  20. Scan type          : Progressive
  21. Title            : The.Emoji.Movie.2017.1080p.BluRay.REMUX.AVC.DTS-HD.MA.5.1-FGT
  22. Language           : English
  23. Default            : No
  24. Forced           : No

  25. Audio #1
  26. ID             : 2
  27. Format           : DTS
  28. Format/Info          : Digital Theater Systems
  29. Format profile         : MA / Core
  30. Mode             : 16
  31. Format settings, Endianness    : Big
  32. Codec ID           : A_DTS
  33. Duration           : 1 h 26 min
  34. Bit rate mode          : Variable / Constant
  35. Bit rate           : Unknown / 1 509 kb/s
  36. Channel(s)           : 6 channels
  37. Channel positions        : Front: L C R, Side: L R, LFE
  38. Sampling rate          : 48.0 kHz
  39. Frame rate           : 93.750 FPS (512 spf)
  40. Bit depth          : 16 bits
  41. Compression mode         : Lossless / Lossy
  42. Title            : The.Emoji.Movie.2017.1080p.BluRay.REMUX.AVC.DTS-HD.MA.5.1-FGT
  43. Language           : English
  44. Default            : Yes
  45. Forced           : No

  46. Audio #2
  47. ID             : 3
  48. Format           : DTS
  49. Format/Info          : Digital Theater Systems
  50. Mode             : 16
  51. Format settings, Endianness    : Big
  52. Codec ID           : A_DTS
  53. Duration           : 1 h 26 min
  54. Bit rate mode          : Constant
  55. Bit rate           : 1 509 kb/s
  56. Channel(s)           : 6 channels
  57. Channel positions        : Front: L C R, Side: L R, LFE
  58. Sampling rate          : 48.0 kHz
  59. Frame rate           : 93.750 FPS (512 spf)
  60. Bit depth          : 16 bits
  61. Compression mode         : Lossy
  62. Stream size          : 932 MiB (5%)
  63. Title            : The.Emoji.Movie.2017.1080p.BluRay.REMUX.AVC.DTS-HD.MA.5.1-FGT
  64. Language           : English
  65. Default            : No
  66. Forced           : No

  67. Audio #3
  68. ID             : 4
  69. Format           : AC-3
  70. Format/Info          : Audio Coding 3
  71. Format settings, Endianness    : Big
  72. Codec ID           : A_AC3
  73. Duration           : 1 h 26 min
  74. Bit rate mode          : Constant
  75. Bit rate           : 640 kb/s
  76. Channel(s)           : 6 channels
  77. Channel positions        : Front: L C R, Side: L R, LFE
  78. Sampling rate          : 48.0 kHz
  79. Frame rate           : 31.250 FPS (1536 spf)
  80. Bit depth          : 16 bits
  81. Compression mode         : Lossy
  82. Stream size          : 395 MiB (2%)
  83. Title            : The.Emoji.Movie.2017.1080p.BluRay.REMUX.AVC.DTS-HD.MA.5.1-FGT
  84. Language           : English
  85. Service kind         : Complete Main
  86. Default            : No
  87. Forced           : No

  88. Audio #4
  89. ID             : 5
  90. Format           : AC-3
  91. Format/Info          : Audio Coding 3
  92. Format settings, Endianness    : Big
  93. Codec ID           : A_AC3
  94. Duration           : 1 h 26 min
  95. Bit rate mode          : Constant
  96. Bit rate           : 640 kb/s
  97. Channel(s)           : 6 channels
  98. Channel positions        : Front: L C R, Side: L R, LFE
  99. Sampling rate          : 48.0 kHz
  100. Frame rate           : 31.250 FPS (1536 spf)
  101. Bit depth          : 16 bits
  102. Compression mode         : Lossy
  103. Stream size          : 395 MiB (2%)
  104. Title            : The.Emoji.Movie.2017.1080p.BluRay.REMUX.AVC.DTS-HD.MA.5.1-FGT
  105. Language           : Chinese
  106. Service kind         : Complete Main
  107. Default            : No
  108. Forced           : No

  109. Audio #5
  110. ID             : 6
  111. Format           : AC-3
  112. Format/Info          : Audio Coding 3
  113. Format settings, Endianness    : Big
  114. Codec ID           : A_AC3
  115. Duration           : 1 h 26 min
  116. Bit rate mode          : Constant
  117. Bit rate           : 640 kb/s
  118. Channel(s)           : 6 channels
  119. Channel positions        : Front: L C R, Side: L R, LFE
  120. Sampling rate          : 48.0 kHz
  121. Frame rate           : 31.250 FPS (1536 spf)
  122. Bit depth          : 16 bits
  123. Compression mode         : Lossy
  124. Stream size          : 395 MiB (2%)
  125. Title            : The.Emoji.Movie.2017.1080p.BluRay.REMUX.AVC.DTS-HD.MA.5.1-FGT
  126. Language           : French
  127. Service kind         : Complete Main
  128. Default            : No
  129. Forced           : No

  130. Audio #6
  131. ID             : 7
  132. Format           : AC-3
  133. Format/Info          : Audio Coding 3
  134. Format settings, Endianness    : Big
  135. Codec ID           : A_AC3
  136. Duration           : 1 h 26 min
  137. Bit rate mode          : Constant
  138. Bit rate           : 640 kb/s
  139. Channel(s)           : 6 channels
  140. Channel positions        : Front: L C R, Side: L R, LFE
  141. Sampling rate          : 48.0 kHz
  142. Frame rate           : 31.250 FPS (1536 spf)
  143. Bit depth          : 16 bits
  144. Compression mode         : Lossy
  145. Stream size          : 395 MiB (2%)
  146. Title            : The.Emoji.Movie.2017.1080p.BluRay.REMUX.AVC.DTS-HD.MA.5.1-FGT
  147. Language           : Korean
  148. Service kind         : Complete Main
  149. Default            : No
  150. Forced           : No

  151. Audio #7
  152. ID             : 8
  153. Format           : AC-3
  154. Format/Info          : Audio Coding 3
  155. Format settings, Endianness    : Big
  156. Codec ID           : A_AC3
  157. Duration           : 1 h 26 min
  158. Bit rate mode          : Constant
  159. Bit rate           : 640 kb/s
  160. Channel(s)           : 6 channels
  161. Channel positions        : Front: L C R, Side: L R, LFE
  162. Sampling rate          : 48.0 kHz
  163. Frame rate           : 31.250 FPS (1536 spf)
  164. Bit depth          : 16 bits
  165. Compression mode         : Lossy
  166. Stream size          : 395 MiB (2%)
  167. Title            : The.Emoji.Movie.2017.1080p.BluRay.REMUX.AVC.DTS-HD.MA.5.1-FGT
  168. Language           : Chinese
  169. Service kind         : Complete Main
  170. Default            : No
  171. Forced           : No

  172. Audio #8
  173. ID             : 9
  174. Format           : AC-3
  175. Format/Info          : Audio Coding 3
  176. Format settings, Endianness    : Big
  177. Codec ID           : A_AC3
  178. Duration           : 1 h 26 min
  179. Bit rate mode          : Constant
  180. Bit rate           : 640 kb/s
  181. Channel(s)           : 6 channels
  182. Channel positions        : Front: L C R, Side: L R, LFE
  183. Sampling rate          : 48.0 kHz
  184. Frame rate           : 31.250 FPS (1536 spf)
  185. Bit depth          : 16 bits
  186. Compression mode         : Lossy
  187. Stream size          : 395 MiB (2%)
  188. Title            : The.Emoji.Movie.2017.1080p.BluRay.REMUX.AVC.DTS-HD.MA.5.1-FGT
  189. Language           : Spanish
  190. Service kind         : Complete Main
  191. Default            : No
  192. Forced           : No

  193. Audio #9
  194. ID             : 10
  195. Format           : AC-3
  196. Format/Info          : Audio Coding 3
  197. Format settings, Endianness    : Big
  198. Codec ID           : A_AC3
  199. Duration           : 1 h 26 min
  200. Bit rate mode          : Constant
  201. Bit rate           : 640 kb/s
  202. Channel(s)           : 6 channels
  203. Channel positions        : Front: L C R, Side: L R, LFE
  204. Sampling rate          : 48.0 kHz
  205. Frame rate           : 31.250 FPS (1536 spf)
  206. Bit depth          : 16 bits
  207. Compression mode         : Lossy
  208. Stream size          : 395 MiB (2%)
  209. Title            : The.Emoji.Movie.2017.1080p.BluRay.REMUX.AVC.DTS-HD.MA.5.1-FGT
  210. Language           : Thai
  211. Service kind         : Complete Main
  212. Default            : No
  213. Forced           : No

  214. Audio #10
  215. ID             : 11
  216. Format           : AC-3
  217. Format/Info          : Audio Coding 3
  218. Format settings, Endianness    : Big
  219. Codec ID           : A_AC3
  220. Duration           : 1 h 26 min
  221. Bit rate mode          : Constant
  222. Bit rate           : 192 kb/s
  223. Channel(s)           : 2 channels
  224. Channel positions        : Front: L R
  225. Sampling rate          : 48.0 kHz
  226. Frame rate           : 31.250 FPS (1536 spf)
  227. Bit depth          : 16 bits
  228. Compression mode         : Lossy
  229. Stream size          : 119 MiB (1%)
  230. Title            : The.Emoji.Movie.2017.1080p.BluRay.REMUX.AVC.DTS-HD.MA.5.1-FGT
  231. Language           : English
  232. Service kind         : Complete Main
  233. Default            : No
  234. Forced           : No

  235. Text #1
  236. ID             : 12
  237. Format           : PGS
  238. Muxing mode          : zlib
  239. Codec ID           : S_HDMV/PGS
  240. Codec ID/Info          : Picture based subtitle format used on BDs/HD-DVDs
  241. Title            : English-PGS
  242. Language           : English
  243. Default            : Yes
  244. Forced           : No

  245. Text #2
  246. ID             : 13
  247. Format           : PGS
  248. Muxing mode          : zlib
  249. Codec ID           : S_HDMV/PGS
  250. Codec ID/Info          : Picture based subtitle format used on BDs/HD-DVDs
  251. Title            : English-SDH-PGS
  252. Language           : English
  253. Default            : No
  254. Forced           : No

  255. Text #3
  256. ID             : 14
  257. Format           : PGS
  258. Muxing mode          : zlib
  259. Codec ID           : S_HDMV/PGS
  260. Codec ID/Info          : Picture based subtitle format used on BDs/HD-DVDs
  261. Title            : Chinese-PGS
  262. Language           : Chinese
  263. Default            : No
  264. Forced           : No

  265. Text #4
  266. ID             : 15
  267. Format           : PGS
  268. Muxing mode          : zlib
  269. Codec ID           : S_HDMV/PGS
  270. Codec ID/Info          : Picture based subtitle format used on BDs/HD-DVDs
  271. Title            : Chinese-PGS
  272. Language           : Chinese
  273. Default            : No
  274. Forced           : No

  275. Text #5
  276. ID             : 16
  277. Format           : PGS
  278. Muxing mode          : zlib
  279. Codec ID           : S_HDMV/PGS
  280. Codec ID/Info          : Picture based subtitle format used on BDs/HD-DVDs
  281. Title            : Chinese-PGS
  282. Language           : Chinese
  283. Default            : No
  284. Forced           : No

  285. Text #6
  286. ID             : 17
  287. Format           : PGS
  288. Muxing mode          : zlib
  289. Codec ID           : S_HDMV/PGS
  290. Codec ID/Info          : Picture based subtitle format used on BDs/HD-DVDs
  291. Title            : French-PGS
  292. Language           : French
  293. Default            : No
  294. Forced           : No

  295. Text #7
  296. ID             : 18
  297. Format           : PGS
  298. Muxing mode          : zlib
  299. Codec ID           : S_HDMV/PGS
  300. Codec ID/Info          : Picture based subtitle format used on BDs/HD-DVDs
  301. Title            : French-FORCED-PGS
  302. Language           : French
  303. Default            : No
  304. Forced           : No

  305. Text #8
  306. ID             : 19
  307. Format           : PGS
  308. Muxing mode          : zlib
  309. Codec ID           : S_HDMV/PGS
  310. Codec ID/Info          : Picture based subtitle format used on BDs/HD-DVDs
  311. Title            : Indonesian-PGS
  312. Language           : Indonesian
  313. Default            : No
  314. Forced           : No

  315. Text #9
  316. ID             : 20
  317. Format           : PGS
  318. Muxing mode          : zlib
  319. Codec ID           : S_HDMV/PGS
  320. Codec ID/Info          : Picture based subtitle format used on BDs/HD-DVDs
  321. Title            : Korean-PGS
  322. Language           : Korean
  323. Default            : No
  324. Forced           : No

  325. Text #10
  326. ID             : 21
  327. Format           : PGS
  328. Muxing mode          : zlib
  329. Codec ID           : S_HDMV/PGS
  330. Codec ID/Info          : Picture based subtitle format used on BDs/HD-DVDs
  331. Title            : Malay-PGS
  332. Language           : Malay
  333. Default            : No
  334. Forced           : No

  335. Text #11
  336. ID             : 22
  337. Format           : PGS
  338. Muxing mode          : zlib
  339. Codec ID           : S_HDMV/PGS
  340. Codec ID/Info          : Picture based subtitle format used on BDs/HD-DVDs
  341. Title            : Spanish-PGS
  342. Language           : Spanish
  343. Default            : No
  344. Forced           : No

  345. Text #12
  346. ID             : 23
  347. Format           : PGS
  348. Muxing mode          : zlib
  349. Codec ID           : S_HDMV/PGS
  350. Codec ID/Info          : Picture based subtitle format used on BDs/HD-DVDs
  351. Title            : Spanish-FORCED-PGS
  352. Language           : Spanish
  353. Default            : No
  354. Forced           : No

  355. Text #13
  356. ID             : 24
  357. Format           : PGS
  358. Muxing mode          : zlib
  359. Codec ID           : S_HDMV/PGS
  360. Codec ID/Info          : Picture based subtitle format used on BDs/HD-DVDs
  361. Title            : Thai-PGS
  362. Language           : Thai
  363. Default            : No
  364. Forced           : No

  365. Text #14
  366. ID             : 25
  367. Format           : PGS
  368. Muxing mode          : zlib
  369. Codec ID           : S_HDMV/PGS
  370. Codec ID/Info          : Picture based subtitle format used on BDs/HD-DVDs
  371. Title            : Vietnamese-PGS
  372. Language           : Vietnamese
  373. Default            : No
  374. Forced           : No

  375. Text #15
  376. ID             : 26
  377. Format           : PGS
  378. Muxing mode          : zlib
  379. Codec ID           : S_HDMV/PGS
  380. Codec ID/Info          : Picture based subtitle format used on BDs/HD-DVDs
  381. Title            : French-PGS
  382. Language           : French
  383. Default            : No
  384. Forced           : No

  385. Text #16
  386. ID             : 27
  387. Format           : PGS
  388. Muxing mode          : zlib
  389. Codec ID           : S_HDMV/PGS
  390. Codec ID/Info          : Picture based subtitle format used on BDs/HD-DVDs
  391. Title            : French-FORCED-PGS
  392. Language           : French
  393. Default            : No
  394. Forced           : No

  395. Text #17
  396. ID             : 28
  397. Format           : PGS
  398. Muxing mode          : zlib
  399. Codec ID           : S_HDMV/PGS
  400. Codec ID/Info          : Picture based subtitle format used on BDs/HD-DVDs
  401. Title            : English-COMMENTARY-PGS
  402. Language           : English
  403. Default            : No
  404. Forced           : No

  405. Text #18
  406. ID             : 29
  407. Format           : PGS
  408. Muxing mode          : zlib
  409. Codec ID           : S_HDMV/PGS
  410. Codec ID/Info          : Picture based subtitle format used on BDs/HD-DVDs
  411. Title            : Chinese-COMMENTARY-PGS
  412. Language           : Chinese
  413. Default            : No
  414. Forced           : No

  415. Text #19
  416. ID             : 30
  417. Format           : PGS
  418. Muxing mode          : zlib
  419. Codec ID           : S_HDMV/PGS
  420. Codec ID/Info          : Picture based subtitle format used on BDs/HD-DVDs
  421. Title            : Korean-COMMENTARY-PGS
  422. Language           : Korean
  423. Default            : No
  424. Forced           : No

  425. Text #20
  426. ID             : 31
  427. Format           : PGS
  428. Muxing mode          : zlib
  429. Codec ID           : S_HDMV/PGS
  430. Codec ID/Info          : Picture based subtitle format used on BDs/HD-DVDs
  431. Title            : Spanish-COMMENTARY-PGS
  432. Language           : Spanish
  433. Default            : No
  434. Forced           : No

  435. Text #21
  436. ID             : 32
  437. Format           : PGS
  438. Muxing mode          : zlib
  439. Codec ID           : S_HDMV/PGS
  440. Codec ID/Info          : Picture based subtitle format used on BDs/HD-DVDs
  441. Title            : Thai-COMMENTARY-PGS
  442. Language           : Thai
  443. Default            : No
  444. Forced           : No

  445. Menu
  446. 00:00:00.000         : en:Chapter 01
  447. 00:05:12.478         : en:Chapter 02
  448. 00:11:38.531         : en:Chapter 03
  449. 00:15:49.406         : en:Chapter 04
  450. 00:22:24.051         : en:Chapter 05
  451. 00:26:48.356         : en:Chapter 06
  452. 00:32:11.262         : en:Chapter 07
  453. 00:39:15.186         : en:Chapter 08
  454. 00:44:16.487         : en:Chapter 09
  455. 00:48:42.753         : en:Chapter 10
  456. 00:53:07.392         : en:Chapter 11
  457. 00:58:19.370         : en:Chapter 12
  458. 01:02:35.752         : en:Chapter 13
  459. 01:07:18.784         : en:Chapter 14
  460. 01:11:54.893         : en:Chapter 15
  461. 01:16:05.394         : en:Chapter 16



复制代码
复制代码
133752m5sup57uudzu4hdd.jpg 133752cnkn2kp0dlkccztk.jpg 133752q6j4ayz7l3a7nuuj.jpg 133752a6qe25g3qmq5zf5z.jpg 133752of838f8gxxxv3nw8.jpg 133752ujppygaaxzcxiai5.jpg





回复

使用道具 举报

懒得打字嘛,点击右侧快捷回复 【右侧内容,后台自定义】
您需要登录后才可以回帖 登录 | 立即加入

本版积分规则

Archiver| |网站地图

Copyright © 2024 Comsenz Inc. Powered by 蓝光电影网

本站内容由用户自主分享和转载自互联网,转载目的在于传递更多信息,并不代表本网赞同其观点和对其真实性负责。

如有侵权、违反国家法律政策行为,请联系我们,我们会第一时间及时清除和处理!

举报反馈邮箱:4k1080.com@gmail.com

快速回复 返回顶部 返回列表