找回密码

查看: 5124|回复: 1

移动迷宫2/移动迷宫2:烧痕审判 Maze.Runner.The.Scorch.Trials.2015.RERIP.2160p.BluRay.x265.10bit.HDR.DTS-HD.MA.7.1-TERMiNAL 15.83GB

[复制链接]
蓝光币
1971
发表于 2017-12-21 20:38:17 | 显示全部楼层 |阅读模式
移动迷宫2/移动迷宫2:烧痕审判 Maze.Runner.The.Scorch.Trials.2015.RERIP.2160p.BluRay.x265.10bit.HDR.DTS-HD.MA.7.1-TERMiNAL 15.83GB-1.jpg
◎译  名 移动迷宫2/移动迷宫2:烧痕审判/移动迷宫:焦土试炼(台/港)/灼热试炼
◎片  名 Maze Runner: The Scorch Trials
◎年  代 2015
◎产  地 美国
◎类  别 行动/科幻
◎语  言 英语
◎上映日期 2015-09-18(美国)/2015-11-04(中国大陆)
◎IMDb评分  6.3/10 from 170,238 users
◎IMDb链接  http://www.imdb.com/title/tt4046784/
◎豆瓣评分 5.7/10 from 55,857 users
◎豆瓣链接 https://movie.douban.com/subject/25995508/
◎片  长 132分钟
◎导  演 韦斯·鲍尔 Wes Ball
◎主  演 迪伦·欧布莱恩 Dylan O'Brien
      卡雅·斯考达里奥 Kaya Scodelario
      托马斯·布罗迪-桑斯特 Thomas Brodie-Sangster
      吉安卡罗·埃斯波西托 Giancarlo Esposito
      艾丹·吉伦 Aidan Gillen
      李起弘 Ki Hong Lee
      巴里·佩珀 Barry Pepper
      莉莉·泰勒 Lili Taylor
      派翠西娅·克拉克森 Patricia Clarkson
      德克斯特·达登 Dexter Darden
      亚历山大·弗洛里斯 Alexander Flores
      雅库布·洛弗兰德 Jacob Lofland
      罗莎·萨拉查 Rosa Salazar
      特里·戴尔·帕克斯 Terry Dale Parks
      凯瑟琳·史姑娘-麦格林 Kathryn Smith-McGlynn
      凯瑟琳·麦克纳马拉 Katherine McNamara
      娜塔莉·伊曼纽尔 Nathalie Emmanuel

◎简  介

  托马斯(迪伦·欧布莱恩 Dylan O'Brien 饰)、米诺(李基弘 Ki Hong Lee 饰)一行人被带到一座奥秘的庇护所,这个机构由内外纷歧的詹森(艾丹·吉伦 Aidan Gillen 饰)所治理,詹森为他们供给平稳且舒适的情况,并命令让幽地斗士们在医疗尝试室中接管连续串的测试,詹森向托马斯保证将会把他们送到加倍平安的庇护区与其他对“闪焰症病毒”免疫的年轻人一同居住。发觉事有蹊跷的托马斯决议再次率领他的伙伴们逃出詹森的掌控,但是期待他们的,却是比迷宫加倍危险的焦土。
  影片改编自詹姆斯·达什纳撰写的同名反乌托邦科幻小说三部曲的第二部。

◎获奖情况

  第43届动画安妮奖  (2016)
  最好真人电影动画结果(提名)

  第6届豆瓣电影鑫像奖  (2016)
  豆渣单元 最渣影片(外语)(提名)
  豆渣单元 最渣导演(外语)(提名) 韦斯·鲍尔

  第2届豆瓣电影年度榜单  (2015)
  11月最受关注电影(提名)
  评分最低的外语电影(提名)


  1. Video
  2. ID                                       : 1
  3. Format                                   : HEVC
  4. Format/Info                              : High Efficiency Video Coding
  5. Format profile                           : Main [url=mailto:10@L5.1]10@L5.1[/url]@High
  6. Codec ID                                 : V_MPEGH/ISO/HEVC
  7. Duration                                 : 2 h 11 min
  8. Bit rate                                 : 11.4 Mb/s
  9. Width                                    : 3 840 pixels
  10. Height                                   : 1 600 pixels
  11. Display aspect ratio                     : 2.40:1
  12. Frame rate mode                          : Constant
  13. Frame rate                               : 23.976 (24000/1001) FPS
  14. Color space                              : YUV
  15. Chroma subsampling                       : 4:2:0 (Type 2)
  16. Bit depth                                : 10 bits
  17. Bits/(Pixel*Frame)                       : 0.077
  18. Stream size                              : 10.5GB (67%)
  19. Writing library                          : x265 2.5+58-06979c042350:[Windows][GCC 6.2.1][64 bit] 10bit
  20. Encoding settings                        : cpuid=1173503 / frame-threads=4 / numa-pools=20 / wpp / no-pmode / no-pme / no-psnr / no-ssim / log-level=2 / input-csp=1 / input-res=3840x1600 / interlace=0 / total-frames=189480 / level-idc=51 / high-tier=1 / uhd-bd=0 / ref=4 / no-allow-non-conformance / repeat-headers / annexb / aud / hrd / info / hash=0 / no-temporal-layers / no-open-gop / min-keyint=1 / keyint=24 / bframes=4 / b-adapt=2 / b-pyramid / bframe-bias=0 / rc-lookahead=25 / lookahead-slices=4 / scenecut=40 / no-intra-refresh / ctu=64 / min-cu-size=8 / rect / no-amp / max-tu-size=32 / tu-inter-depth=1 / tu-intra-depth=1 / limit-tu=0 / rdoq-level=2 / dynamic-rd=0.00 / no-ssim-rd / signhide / no-tskip / nr-intra=0 / nr-inter=0 / no-constrained-intra / no-strong-intra-smoothing / max-merge=3 / limit-refs=3 / limit-modes / me=3 / subme=3 / merange=57 / temporal-mvp / weightp / no-weightb / no-analyze-src-pics / deblock=-3:-3 / no-sao / no-sao-non-deblock / rd=4 / no-early-skip / rskip / no-fast-intra / no-tskip-fast / no-cu-lossless / no-b-intra / no-splitrd-skip / rdpenalty=0 / psy-rd=2.00 / psy-rdoq=1.00 / no-rd-refine / analysis-reuse-mode=0 / no-lossless / cbqpoffs=0 / crqpoffs=0 / rc=crf / crf=17.0 / qcomp=0.60 / qpstep=4 / stats-write=0 / stats-read=0 / vbv-maxrate=160000 / vbv-bufsize=160000 / vbv-init=0.9 / crf-max=0.0 / crf-min=0.0 / ipratio=1.40 / pbratio=1.30 / aq-mode=1 / aq-strength=1.00 / cutree / zone-count=0 / no-strict-cbr / qg-size=32 / no-rc-grain / qpmax=69 / qpmin=0 / no-const-vbv / sar=1 / overscan=0 / videoformat=5 / range=0 / colorprim=9 / transfer=16 / colormatrix=9 / chromaloc=1 / chromaloc-top=2 / chromaloc-bottom=2 / display-window=0 / master-display=G(13250,34500)B(7500,3000)R(34000,16000)WP(15635,16450)L(11000000,0) / max-cll=0,0 / min-luma=0 / max-luma=1023 / log2-max-poc-lsb=8 / vui-timing-info / vui-hrd-info / slices=1 / no-opt-qp-pps / no-opt-ref-list-length-pps / no-multi-pass-opt-rps / scenecut-bias=0.05 / no-opt-cu-delta-qp / no-aq-motion / hdr / hdr-opt / no-dhdr10-opt / analysis-reuse-level=5 / scale-factor=0 / refine-intra=0 / refine-inter=0 / refine-mv=0 / no-limit-sao / ctu-info=0 / no-lowpass-dct / refine-mv-type=0 / copy-pic=1
  21. Default                                  : Yes
  22. Forced                                   : No
  23. Color range                              : Limited
  24. Color primaries                          : BT.2020
  25. Transfer characteristics                 : PQ
  26. Matrix coefficients                      : BT.2020 non-constant
  27. Mastering display color primaries        : R: x=0.680000 y=0.320000, G: x=0.265000 y=0.690000, B: x=0.150000 y=0.060000, White point: x=0.312700 y=0.329000
  28. Mastering display luminance              : min: 0.0000 cd/m2, max: 1100.0000 cd/m2

  29. Audio #1
  30. ID                                       : 2
  31. Format                                   : DTS
  32. Format/Info                              : Digital Theater Systems
  33. Format profile                           : MA / ES Matrix / Core
  34. Codec ID                                 : A_DTS
  35. Duration                                 : 2 h 11 min
  36. Bit rate mode                            : Variable / Constant / Constant
  37. Bit rate                                 : 5 083 kb/s / 1 509 kb/s / 1 509 kb/s
  38. Channel(s)                               : 8 channels / 7 channels / 6 channels
  39. Channel positions                        : Front: L C R, Side: L R, Back: L R, LFE / Front: L C R, Side: L R, Back: C, LFE / Front: L C R, Side: L R, LFE
  40. Sampling rate                            : 48.0 kHz
  41. Frame rate                               : 93.750 FPS (512 SPF)
  42. Bit depth                                : 24 bits
  43. Compression mode                         : Lossless / Lossy / Lossy
  44. Stream size                              : 4.68GB (30%)
  45. Language                                 : English
  46. Default                                  : Yes
  47. Forced                                   : No

  48. Audio #2
  49. ID                                       : 3
  50. Format                                   : AC-3
  51. Format/Info                              : Audio Coding 3
  52. Codec ID                                 : A_AC3
  53. Duration                                 : 2 h 11 min
  54. Bit rate mode                            : Constant
  55. Bit rate                                 : 224 kb/s
  56. Channel(s)                               : 2 channels
  57. Channel positions                        : Front: L R
  58. Sampling rate                            : 48.0 kHz
  59. Frame rate                               : 31.250 FPS (1536 SPF)
  60. Bit depth                                : 16 bits
  61. Compression mode                         : Lossy
  62. Stream size                              : 211 MiB (1%)
  63. Title                                    : Commentary with director Wes Ball, screenwriter T.S. Nowlin, producer Joe Hartwick Jr., editor Dan Zimmerman
  64. Language                                 : English
  65. Service kind                             : Complete Main
  66. Default                                  : No
  67. Forced                                   : No

  68. Text #1
  69. ID                                       : 4
  70. Format                                   : PGS
  71. Muxing mode                              : zlib
  72. Codec ID                                 : S_HDMV/PGS
  73. Codec ID/Info                            : Picture based subtitle format used on BDs/HD-DVDs
  74. Duration                                 : 2 h 2 min
  75. Bit rate                                 : 34.9 kb/s
  76. Count of elements                        : 3810
  77. Stream size                              : 30.7 MiB (0%)
  78. Title                                    : SDH
  79. Language                                 : English
  80. Default                                  : No
  81. Forced                                   : No

  82. Text #2
  83. ID                                       : 5
  84. Format                                   : PGS
  85. Muxing mode                              : zlib
  86. Codec ID                                 : S_HDMV/PGS
  87. Codec ID/Info                            : Picture based subtitle format used on BDs/HD-DVDs
  88. Duration                                 : 2 h 10 min
  89. Bit rate                                 : 24.2 kb/s
  90. Count of elements                        : 2948
  91. Stream size                              : 22.5 MiB (0%)
  92. Language                                 : Spanish
  93. Default                                  : No
  94. Forced                                   : No

  95. Text #3
  96. ID                                       : 6
  97. Format                                   : PGS
  98. Muxing mode                              : zlib
  99. Codec ID                                 : S_HDMV/PGS
  100. Codec ID/Info                            : Picture based subtitle format used on BDs/HD-DVDs
  101. Duration                                 : 2 h 10 min
  102. Bit rate                                 : 19.8 kb/s
  103. Count of elements                        : 2582
  104. Stream size                              : 18.4 MiB (0%)
  105. Language                                 : French
  106. Default                                  : No
  107. Forced                                   : No

  108. Text #4
  109. ID                                       : 7
  110. Format                                   : PGS
  111. Muxing mode                              : zlib
  112. Codec ID                                 : S_HDMV/PGS
  113. Codec ID/Info                            : Picture based subtitle format used on BDs/HD-DVDs
  114. Duration                                 : 2 h 10 min
  115. Bit rate                                 : 23.4 kb/s
  116. Count of elements                        : 2510
  117. Stream size                              : 21.8 MiB (0%)
  118. Language                                 : Danish
  119. Default                                  : No
  120. Forced                                   : No

  121. Text #5
  122. ID                                       : 8
  123. Format                                   : PGS
  124. Muxing mode                              : zlib
  125. Codec ID                                 : S_HDMV/PGS
  126. Codec ID/Info                            : Picture based subtitle format used on BDs/HD-DVDs
  127. Duration                                 : 2 h 10 min
  128. Bit rate                                 : 19.7 kb/s
  129. Count of elements                        : 2440
  130. Stream size                              : 18.3 MiB (0%)
  131. Language                                 : Dutch
  132. Default                                  : No
  133. Forced                                   : No

  134. Text #6
  135. ID                                       : 9
  136. Format                                   : PGS
  137. Muxing mode                              : zlib
  138. Codec ID                                 : S_HDMV/PGS
  139. Codec ID/Info                            : Picture based subtitle format used on BDs/HD-DVDs
  140. Duration                                 : 2 h 10 min
  141. Bit rate                                 : 21.5 kb/s
  142. Count of elements                        : 2982
  143. Stream size                              : 20.0 MiB (0%)
  144. Language                                 : Finnish
  145. Default                                  : No
  146. Forced                                   : No

  147. Text #7
  148. ID                                       : 10
  149. Format                                   : PGS
  150. Muxing mode                              : zlib
  151. Codec ID                                 : S_HDMV/PGS
  152. Codec ID/Info                            : Picture based subtitle format used on BDs/HD-DVDs
  153. Duration                                 : 2 h 10 min
  154. Bit rate                                 : 22.9 kb/s
  155. Count of elements                        : 2828
  156. Stream size                              : 21.3 MiB (0%)
  157. Language                                 : German
  158. Default                                  : No
  159. Forced                                   : No

  160. Text #8
  161. ID                                       : 11
  162. Format                                   : PGS
  163. Muxing mode                              : zlib
  164. Codec ID                                 : S_HDMV/PGS
  165. Codec ID/Info                            : Picture based subtitle format used on BDs/HD-DVDs
  166. Duration                                 : 2 h 10 min
  167. Bit rate                                 : 22.7 kb/s
  168. Count of elements                        : 2986
  169. Stream size                              : 21.1 MiB (0%)
  170. Language                                 : Italian
  171. Default                                  : No
  172. Forced                                   : No

  173. Text #9
  174. ID                                       : 12
  175. Format                                   : PGS
  176. Muxing mode                              : zlib
  177. Codec ID                                 : S_HDMV/PGS
  178. Codec ID/Info                            : Picture based subtitle format used on BDs/HD-DVDs
  179. Duration                                 : 2 h 10 min
  180. Bit rate                                 : 14.0 kb/s
  181. Count of elements                        : 2568
  182. Stream size                              : 13.1 MiB (0%)
  183. Language                                 : Japanese
  184. Default                                  : No
  185. Forced                                   : No

  186. Text #10
  187. ID                                       : 13
  188. Format                                   : PGS
  189. Muxing mode                              : zlib
  190. Codec ID                                 : S_HDMV/PGS
  191. Codec ID/Info                            : Picture based subtitle format used on BDs/HD-DVDs
  192. Duration                                 : 2 h 10 min
  193. Bit rate                                 : 23.9 kb/s
  194. Count of elements                        : 2988
  195. Stream size                              : 22.2 MiB (0%)
  196. Language                                 : Norwegian
  197. Default                                  : No
  198. Forced                                   : No

  199. Text #11
  200. ID                                       : 14
  201. Format                                   : PGS
  202. Muxing mode                              : zlib
  203. Codec ID                                 : S_HDMV/PGS
  204. Codec ID/Info                            : Picture based subtitle format used on BDs/HD-DVDs
  205. Duration                                 : 2 h 10 min
  206. Bit rate                                 : 22.5 kb/s
  207. Count of elements                        : 2980
  208. Stream size                              : 20.9 MiB (0%)
  209. Language                                 : Swedish
  210. Default                                  : No
  211. Forced                                   : No

  212. Text #12
  213. ID                                       : 15
  214. Format                                   : PGS
  215. Muxing mode                              : zlib
  216. Codec ID                                 : S_HDMV/PGS
  217. Codec ID/Info                            : Picture based subtitle format used on BDs/HD-DVDs
  218. Duration                                 : 2 h 7 min
  219. Bit rate                                 : 103 kb/s
  220. Count of elements                        : 5844
  221. Stream size                              : 94.3 MiB (1%)
  222. Title                                    : Commentary
  223. Language                                 : English
  224. Default                                  : No
  225. Forced                                   : No

  226. Text #13
  227. ID                                       : 16
  228. Format                                   : PGS
  229. Muxing mode                              : zlib
  230. Codec ID                                 : S_HDMV/PGS
  231. Codec ID/Info                            : Picture based subtitle format used on BDs/HD-DVDs
  232. Duration                                 : 2 h 11 min
  233. Bit rate                                 : 79.1 kb/s
  234. Count of elements                        : 5788
  235. Stream size                              : 74.4 MiB (0%)
  236. Title                                    : Commentary
  237. Language                                 : Spanish
  238. Default                                  : No
  239. Forced                                   : No

  240. Text #14
  241. ID                                       : 17
  242. Format                                   : PGS
  243. Muxing mode                              : zlib
  244. Codec ID                                 : S_HDMV/PGS
  245. Codec ID/Info                            : Picture based subtitle format used on BDs/HD-DVDs
  246. Duration                                 : 2 h 11 min
  247. Bit rate                                 : 77.1 kb/s
  248. Count of elements                        : 5808
  249. Stream size                              : 72.5 MiB (0%)
  250. Title                                    : Commentary
  251. Language                                 : French
  252. Default                                  : No
  253. Forced                                   : No

  254. Text #15
  255. ID                                       : 18
  256. Format                                   : PGS
  257. Muxing mode                              : zlib
  258. Codec ID                                 : S_HDMV/PGS
  259. Codec ID/Info                            : Picture based subtitle format used on BDs/HD-DVDs
  260. Duration                                 : 2 h 11 min
  261. Bit rate                                 : 77.9 kb/s
  262. Count of elements                        : 5794
  263. Stream size                              : 73.3 MiB (0%)
  264. Title                                    : Commentary
  265. Language                                 : Danish
  266. Default                                  : No
  267. Forced                                   : No

  268. Text #16
  269. ID                                       : 19
  270. Format                                   : PGS
  271. Muxing mode                              : zlib
  272. Codec ID                                 : S_HDMV/PGS
  273. Codec ID/Info                            : Picture based subtitle format used on BDs/HD-DVDs
  274. Duration                                 : 2 h 11 min
  275. Bit rate                                 : 88.6 kb/s
  276. Count of elements                        : 5784
  277. Stream size                              : 83.3 MiB (1%)
  278. Title                                    : Commentary
  279. Language                                 : Dutch
  280. Default                                  : No
  281. Forced                                   : No

  282. Text #17
  283. ID                                       : 20
  284. Format                                   : PGS
  285. Muxing mode                              : zlib
  286. Codec ID                                 : S_HDMV/PGS
  287. Codec ID/Info                            : Picture based subtitle format used on BDs/HD-DVDs
  288. Duration                                 : 2 h 11 min
  289. Bit rate                                 : 67.2 kb/s
  290. Count of elements                        : 5808
  291. Stream size                              : 63.3 MiB (0%)
  292. Title                                    : Commentary
  293. Language                                 : Finnish
  294. Default                                  : No
  295. Forced                                   : No

  296. Text #18
  297. ID                                       : 21
  298. Format                                   : PGS
  299. Muxing mode                              : zlib
  300. Codec ID                                 : S_HDMV/PGS
  301. Codec ID/Info                            : Picture based subtitle format used on BDs/HD-DVDs
  302. Duration                                 : 2 h 11 min
  303. Bit rate                                 : 89.2 kb/s
  304. Count of elements                        : 5798
  305. Stream size                              : 83.9 MiB (1%)
  306. Title                                    : Commentary
  307. Language                                 : German
  308. Default                                  : No
  309. Forced                                   : No

  310. Text #19
  311. ID                                       : 22
  312. Format                                   : PGS
  313. Muxing mode                              : zlib
  314. Codec ID                                 : S_HDMV/PGS
  315. Codec ID/Info                            : Picture based subtitle format used on BDs/HD-DVDs
  316. Duration                                 : 2 h 11 min
  317. Bit rate                                 : 75.3 kb/s
  318. Count of elements                        : 5808
  319. Stream size                              : 70.8 MiB (0%)
  320. Title                                    : Commentary
  321. Language                                 : Italian
  322. Default                                  : No
  323. Forced                                   : No

  324. Text #20
  325. ID                                       : 23
  326. Format                                   : PGS
  327. Muxing mode                              : zlib
  328. Codec ID                                 : S_HDMV/PGS
  329. Codec ID/Info                            : Picture based subtitle format used on BDs/HD-DVDs
  330. Duration                                 : 2 h 11 min
  331. Bit rate                                 : 43.5 kb/s
  332. Count of elements                        : 3740
  333. Stream size                              : 40.9 MiB (0%)
  334. Title                                    : Commentary
  335. Language                                 : Japanese
  336. Default                                  : No
  337. Forced                                   : No

  338. Text #21
  339. ID                                       : 24
  340. Format                                   : PGS
  341. Muxing mode                              : zlib
  342. Codec ID                                 : S_HDMV/PGS
  343. Codec ID/Info                            : Picture based subtitle format used on BDs/HD-DVDs
  344. Duration                                 : 2 h 11 min
  345. Bit rate                                 : 80.8 kb/s
  346. Count of elements                        : 5808
  347. Stream size                              : 76.0 MiB (0%)
  348. Title                                    : Commentary
  349. Language                                 : Norwegian
  350. Default                                  : No
  351. Forced                                   : No

  352. Text #22
  353. ID                                       : 25
  354. Format                                   : PGS
  355. Muxing mode                              : zlib
  356. Codec ID                                 : S_HDMV/PGS
  357. Codec ID/Info                            : Picture based subtitle format used on BDs/HD-DVDs
  358. Duration                                 : 2 h 11 min
  359. Bit rate                                 : 76.7 kb/s
  360. Count of elements                        : 5808
  361. Stream size                              : 72.1 MiB (0%)
  362. Title                                    : Commentary
  363. Language                                 : Swedish
  364. Default                                  : No
  365. Forced                                   : No

  366. Menu
  367. 00:00:00.000                             : en:00:00:00.000
  368. 00:04:05.120                             : en:00:04:05.120
  369. 00:05:59.818                             : en:00:05:59.818
  370. 00:09:08.798                             : en:00:09:08.798
  371. 00:11:55.840                             : en:00:11:55.840
  372. 00:17:32.677                             : en:00:17:32.677
  373. 00:23:21.191                             : en:00:23:21.191
  374. 00:27:36.029                             : en:00:27:36.029
  375. 00:33:10.238                             : en:00:33:10.238
  376. 00:37:06.683                             : en:00:37:06.683
  377. 00:41:30.988                             : en:00:41:30.988
  378. 00:45:47.370                             : en:00:45:47.370
  379. 00:51:57.781                             : en:00:51:57.781
  380. 00:56:01.775                             : en:00:56:01.775
  381. 01:00:56.319                             : en:01:00:56.319
  382. 01:03:50.535                             : en:01:03:50.535
  383. 01:07:29.254                             : en:01:07:29.254
  384. 01:11:19.192                             : en:01:11:19.192
  385. 01:15:32.820                             : en:01:15:32.820
  386. 01:20:15.060                             : en:01:20:15.060
  387. 01:27:47.471                             : en:01:27:47.471
  388. 01:30:17.287                             : en:01:30:17.287
  389. 01:34:04.013                             : en:01:34:04.013
  390. 01:38:29.904                             : en:01:38:29.904
  391. 01:40:52.546                             : en:01:40:52.546
  392. 01:44:13.122                             : en:01:44:13.122
  393. 01:51:51.872                             : en:01:51:51.872
  394. 01:56:51.213                             : en:01:56:51.213
  395. 02:01:02.714                             : en:02:01:02.714
  396. 02:04:05.146                             : en:02:04:05.146



复制代码
复制代码
移动迷宫2/移动迷宫2:烧痕审判 Maze.Runner.The.Scorch.Trials.2015.RERIP.2160p.BluRay.x265.10bit.HDR.DTS-HD.MA.7.1-TERMiNAL 15.83GB-2.png 移动迷宫2/移动迷宫2:烧痕审判 Maze.Runner.The.Scorch.Trials.2015.RERIP.2160p.BluRay.x265.10bit.HDR.DTS-HD.MA.7.1-TERMiNAL 15.83GB-3.png 移动迷宫2/移动迷宫2:烧痕审判 Maze.Runner.The.Scorch.Trials.2015.RERIP.2160p.BluRay.x265.10bit.HDR.DTS-HD.MA.7.1-TERMiNAL 15.83GB-4.png 移动迷宫2/移动迷宫2:烧痕审判 Maze.Runner.The.Scorch.Trials.2015.RERIP.2160p.BluRay.x265.10bit.HDR.DTS-HD.MA.7.1-TERMiNAL 15.83GB-5.png 移动迷宫2/移动迷宫2:烧痕审判 Maze.Runner.The.Scorch.Trials.2015.RERIP.2160p.BluRay.x265.10bit.HDR.DTS-HD.MA.7.1-TERMiNAL 15.83GB-6.png 移动迷宫2/移动迷宫2:烧痕审判 Maze.Runner.The.Scorch.Trials.2015.RERIP.2160p.BluRay.x265.10bit.HDR.DTS-HD.MA.7.1-TERMiNAL 15.83GB-7.png





回复

使用道具 举报

蓝光币
288
发表于 2020-10-13 17:06:12 | 显示全部楼层
楼主发贴辛苦了,谢谢楼主分享!我觉得蓝光电影网是注册对了!
回复

使用道具 举报

懒得打字嘛,点击右侧快捷回复 【右侧内容,后台自定义】
您需要登录后才可以回帖 登录 | 立即加入

本版积分规则

Archiver| |网站地图

Copyright © 2024 Comsenz Inc. Powered by 蓝光电影网

本站内容由用户自主分享和转载自互联网,转载目的在于传递更多信息,并不代表本网赞同其观点和对其真实性负责。

如有侵权、违反国家法律政策行为,请联系我们,我们会第一时间及时清除和处理!

举报反馈邮箱:4k1080.com@gmail.com

快速回复 返回顶部 返回列表