找回密码

查看: 2974|回复: 2

[剧情] 维多利亚与阿卜杜勒/女王与知己 Victoria.and.Abdul.2017.1080p.BluRay.REMUX.AVC.DTS-HD.MA.5.1-FGT 29.20GB

[复制链接]
蓝光币
1984
发表于 2017-12-21 22:59:52 | 显示全部楼层 |阅读模式
110229vvgbvc8mybmbj608.jpg
◎译  名 维多利亚与阿卜杜勒 / 女王与知己 / 维多利亚女王:日不落奇缘
◎片  名 维多利亚与阿卜杜勒 Victoria and Abdul
◎年  代 2017
◎国  家 英国 / 美国
◎类  别 剧情 / 列传 / 历史
◎语  言 英语 / 乌尔都语 / 印地语
◎上映日期 2017-09-03(威尼斯电影节) / 2017-09-15(英国) / 2017-10-06(美国)
◎IMDb评分6.8/10 from 7,570 users
◎IMDb链接http://www.imdb.com/title/tt5816682/
◎豆瓣评分 6.1/10 from 572 users
◎豆瓣链接 https://movie.douban.com/subject/26820546/
◎片  长 112分钟
◎导  演 斯蒂芬·弗雷斯
◎主  演 朱迪·丹奇 Judi Dench
      阿里·扎勒 Ali Fazal
      蒂姆·皮戈特-史姑娘 Tim Pigott-Smith
      艾迪·伊扎德 Eddie Izzard
      阿迪勒·阿赫塔尔 Adeel Akhtar
      迈克尔·刚本 Michael Gambon
      保罗·希金斯 Paul Higgins
      奥莉维亚·威廉姆斯 Olivia Williams
      费奈拉·伍尔加 Fenella Woolgar
      朱利安·沃德姆 Julian Wadham
      罗宾·索恩斯 Robin Soans
      鲁斯·麦克卡比 Ruth McCabe
      西蒙·卡洛 Simon Callow
      苏可·欧拉 Sukh Ojla
      柯马尔·迪恩-埃利斯 Kemaal Deen-Ellis

◎简  介 

  朱迪·丹奇主演的《维多利亚与阿卜杜勒》起头停止建造,将在苏格兰、印度、英国取景。这是她与导演斯蒂芬·弗雷斯继《菲洛梅娜》后的再次合作,也是《布朗夫人》后再次演维多利亚女王,报告晚年的女王与年轻印度男仆之间的友谊。焦点负责北美刊行,2017.9.22北美小范围上映,随后一周扩映。

◎获奖情况 

  第75届金球奖 (2018)
  电影类 音乐/笑剧片最好女配角(提名) 朱迪·丹奇

  第22届金卫星奖 (2018)
  电影部分 最好女配角(提名) 朱迪·丹奇
  电影部分 最好改编剧本(提名) 李·哈尔
  电影部分 最好打扮设想(提名) 索莱塔·博伊尔



  1. Video
  2. ID             : 1
  3. Format           : AVC
  4. Format/Info          : Advanced Video Codec
  5. Format profile         : [email]High@L4.1[/email]
  6. Format settings        : CABAC / 4 Ref Frames
  7. Format settings, CABAC       : Yes
  8. Format settings, ReFrames      : 4 frames
  9. Codec ID           : V_MPEG4/ISO/AVC
  10. Duration           : 1 h 51 min
  11. Bit rate mode          : Variable
  12. Maximum bit rate         : 35.0 Mb/s
  13. Width            : 1 920 pixels
  14. Height           : 1 080 pixels
  15. Display aspect ratio       : 16:9
  16. Frame rate mode        : Constant
  17. Frame rate           : 23.976 (24000/1001) FPS
  18. Color space          : YUV
  19. Chroma subsampling       : 4:2:0
  20. Bit depth          : 8 bits
  21. Scan type          : Progressive
  22. Title            : Victoria.and.Abdul.2017.1080p.BluRay.REMUX.AVC.DTS-HD.MA.5.1-FGT
  23. Language           : English
  24. Default            : No
  25. Forced           : No

  26. Audio #1
  27. ID             : 2
  28. Format           : DTS
  29. Format/Info          : Digital Theater Systems
  30. Format profile         : MA / Core
  31. Codec ID           : A_DTS
  32. Duration           : 1 h 51 min
  33. Bit rate mode          : Variable / Constant
  34. Bit rate           : Unknown / 1 509 kb/s
  35. Channel(s)           : 6 channels
  36. Channel positions        : Front: L C R, Side: L R, LFE
  37. Sampling rate          : 48.0 kHz
  38. Frame rate           : 93.750 FPS (512 SPF)
  39. Bit depth          : 24 bits
  40. Compression mode         : Lossless / Lossy
  41. Title            : Victoria.and.Abdul.2017.1080p.BluRay.REMUX.AVC.DTS-HD.MA.5.1-FGT
  42. Language           : English
  43. Default            : Yes
  44. Forced           : No

  45. Audio #2
  46. ID             : 3
  47. Format           : DTS
  48. Format/Info          : Digital Theater Systems
  49. Codec ID           : A_DTS
  50. Duration           : 1 h 51 min
  51. Bit rate mode          : Constant
  52. Bit rate           : 1 509 kb/s
  53. Channel(s)           : 6 channels
  54. Channel positions        : Front: L C R, Side: L R, LFE
  55. Sampling rate          : 48.0 kHz
  56. Frame rate           : 93.750 FPS (512 SPF)
  57. Bit depth          : 24 bits
  58. Compression mode         : Lossy
  59. Stream size          : 1.17GB (4%)
  60. Title            : Victoria.and.Abdul.2017.1080p.BluRay.REMUX.AVC.DTS-HD.MA.5.1-FGT
  61. Language           : English
  62. Default            : No
  63. Forced           : No

  64. Audio #3
  65. ID             : 4
  66. Format           : DTS
  67. Format/Info          : Digital Theater Systems
  68. Codec ID           : A_DTS
  69. Duration           : 1 h 51 min
  70. Bit rate mode          : Constant
  71. Bit rate           : 768 kb/s
  72. Channel(s)           : 6 channels
  73. Channel positions        : Front: L C R, Side: L R, LFE
  74. Sampling rate          : 48.0 kHz
  75. Frame rate           : 93.750 FPS (512 SPF)
  76. Bit depth          : 24 bits
  77. Compression mode         : Lossy
  78. Stream size          : 611 MiB (2%)
  79. Title            : Victoria.and.Abdul.2017.1080p.BluRay.REMUX.AVC.DTS-HD.MA.5.1-FGT
  80. Language           : Spanish
  81. Default            : No
  82. Forced           : No

  83. Audio #4
  84. ID             : 5
  85. Format           : DTS
  86. Format/Info          : Digital Theater Systems
  87. Codec ID           : A_DTS
  88. Duration           : 1 h 51 min
  89. Bit rate mode          : Constant
  90. Bit rate           : 768 kb/s
  91. Channel(s)           : 6 channels
  92. Channel positions        : Front: L C R, Side: L R, LFE
  93. Sampling rate          : 48.0 kHz
  94. Frame rate           : 93.750 FPS (512 SPF)
  95. Bit depth          : 24 bits
  96. Compression mode         : Lossy
  97. Stream size          : 611 MiB (2%)
  98. Title            : Victoria.and.Abdul.2017.1080p.BluRay.REMUX.AVC.DTS-HD.MA.5.1-FGT
  99. Language           : French
  100. Default            : No
  101. Forced           : No

  102. Audio #5
  103. ID             : 6
  104. Format           : AC-3
  105. Format/Info          : Audio Coding 3
  106. Codec ID           : A_AC3
  107. Duration           : 1 h 51 min
  108. Bit rate mode          : Constant
  109. Bit rate           : 192 kb/s
  110. Channel(s)           : 2 channels
  111. Channel positions        : Front: L R
  112. Sampling rate          : 48.0 kHz
  113. Frame rate           : 31.250 FPS (1536 SPF)
  114. Bit depth          : 16 bits
  115. Compression mode         : Lossy
  116. Stream size          : 153 MiB (1%)
  117. Title            : Victoria.and.Abdul.2017.1080p.BluRay.REMUX.AVC.DTS-HD.MA.5.1-FGT
  118. Language           : English
  119. Service kind         : Complete Main
  120. Default            : No
  121. Forced           : No

  122. Text #1
  123. ID             : 7
  124. Format           : PGS
  125. Muxing mode          : zlib
  126. Codec ID           : S_HDMV/PGS
  127. Codec ID/Info          : Picture based subtitle format used on BDs/HD-DVDs
  128. Title            : English-PGS
  129. Language           : English
  130. Default            : Yes
  131. Forced           : No

  132. Text #2
  133. ID             : 8
  134. Format           : PGS
  135. Muxing mode          : zlib
  136. Codec ID           : S_HDMV/PGS
  137. Codec ID/Info          : Picture based subtitle format used on BDs/HD-DVDs
  138. Title            : Spanish-PGS
  139. Language           : Spanish
  140. Default            : No
  141. Forced           : No

  142. Text #3
  143. ID             : 9
  144. Format           : PGS
  145. Muxing mode          : zlib
  146. Codec ID           : S_HDMV/PGS
  147. Codec ID/Info          : Picture based subtitle format used on BDs/HD-DVDs
  148. Title            : French-PGS
  149. Language           : French
  150. Default            : No
  151. Forced           : No

  152. Text #4
  153. ID             : 10
  154. Format           : PGS
  155. Muxing mode          : zlib
  156. Codec ID           : S_HDMV/PGS
  157. Codec ID/Info          : Picture based subtitle format used on BDs/HD-DVDs
  158. Title            : Spanish-FORCED-PGS
  159. Language           : Spanish
  160. Default            : No
  161. Forced           : No

  162. Text #5
  163. ID             : 11
  164. Format           : PGS
  165. Muxing mode          : zlib
  166. Codec ID           : S_HDMV/PGS
  167. Codec ID/Info          : Picture based subtitle format used on BDs/HD-DVDs
  168. Title            : French-FORCED-PGS
  169. Language           : French
  170. Default            : No
  171. Forced           : No

  172. Menu
  173. 00:00:00.000         : en:Chapter 01
  174. 00:05:41.132         : en:Chapter 02
  175. 00:10:37.803         : en:Chapter 03
  176. 00:15:44.026         : en:Chapter 04
  177. 00:20:05.829         : en:Chapter 05
  178. 00:28:20.699         : en:Chapter 06
  179. 00:35:27.208         : en:Chapter 07
  180. 00:41:05.045         : en:Chapter 08
  181. 00:49:15.160         : en:Chapter 09
  182. 00:54:43.488         : en:Chapter 10
  183. 00:59:56.843         : en:Chapter 11
  184. 01:07:12.111         : en:Chapter 12
  185. 01:12:12.745         : en:Chapter 13
  186. 01:17:47.162         : en:Chapter 14
  187. 01:21:20.792         : en:Chapter 15
  188. 01:27:25.031         : en:Chapter 16
  189. 01:30:56.909         : en:Chapter 17
  190. 01:38:49.465         : en:Chapter 18
  191. 01:42:31.520         : en:Chapter 19
  192. 01:44:27.594         : en:Chapter 20



复制代码
复制代码
110229wjhvyy7wjshawyii.jpg 110230c3jjuthfaj5fyyif.jpg 110231wx8efxeqqx00a1oz.jpg 110231w7vkxqaa3kmv0j7z.jpg 110232z277k9neyz7z7oee.jpg 110233cf246ep1n41coefw.jpg

                                


回复

使用道具 举报

懒得打字嘛,点击右侧快捷回复 【右侧内容,后台自定义】
您需要登录后才可以回帖 登录 | 立即加入

本版积分规则

Archiver| |网站地图

Copyright © 2024 Comsenz Inc. Powered by 蓝光电影网

本站内容由用户自主分享和转载自互联网,转载目的在于传递更多信息,并不代表本网赞同其观点和对其真实性负责。

如有侵权、违反国家法律政策行为,请联系我们,我们会第一时间及时清除和处理!

举报反馈邮箱:4k1080.com@gmail.com

快速回复 返回顶部 返回列表