找回密码

查看: 3202|回复: 4

[科幻] 猎杀星期一/超生游击队(豆友译名) What.Happened.to.Monday.2017.1080p.BluRay.REMUX.AVC.DTS-HD.MA.5.1-FGT 35.23GB

[复制链接]
蓝光币
2039
发表于 2017-12-21 23:02:28 | 显示全部楼层 |阅读模式
224342q5alau5lfueuknfn.jpg
◎译  名 猎杀星期一/超生游击队(豆友译名)
◎片  名 What Happened to Monday?
◎年  代 2017
◎产  地 英国/美国/法国/比利时
◎类  别 科幻/惊悚
◎语  言 英语
◎上映日期 2017-08-06(洛迦诺电影节)/2017-08-18(英国)
◎IMDb评分6.9/10 from 36,351 users
◎IMDb链接http://www.imdb.com/title/tt1536537/
◎豆瓣评分 6.8/10 from 15,261 users
◎豆瓣链接 https://movie.douban.com/subject/7154408/
◎片  长 123分钟
◎导  演 托米·维尔科拉 Tommy Wirkola
◎主  演 劳米·拉佩斯 Noomi Rapace
      格伦·克洛斯 Glenn Close
      威廉·达福 Willem Dafoe
      马尔万·肯扎里 Marwan Kenzari
      克里斯蒂安·鲁贝克 Christian Rubeck
      帕尔·斯维尔·哈根 P?l Sverre Hagen
      托米瓦·埃敦 Tomiwa Edun
      凯西·克莱尔 Cassie Clare
      卡梅伦·杰克 Cameron Jack
      柯尔斯蒂·阿弗顿 Kirsty Averton
      维加·霍尔 Vegar Hoel
      马达林·德拉甘 Madalin Dragan
      斯蒂格·弗洛德·亨里克森 Stig Frode Henriksen
      亚历山大·阮 Alexandre Nguyen
      拉腊·德坎罗 Lara Decaro
      玛丽·埃弗雷特 Marie Everett
      桑地亚哥·卡布瑞拉 Santiago Cabrera

◎简  介

  故事设定在近未来,由于生齿过剩和饥荒,政府不能不实行“独生后代”政策。正由于这个严酷的计划生育议程,姐妹们必须轮流利用一小我的身份Karen Settman(拉佩斯饰)。她们的祖父(达福饰)给其命名为周一、周二、周三、周四、周五、周六和周日。每小我都可以每周外出一次。姐妹们只要在自己的公寓里才可以安闲生活。直到有一天,“星期一”没回家......


  1. Video
  2. ID             : 1
  3. Format           : AVC
  4. Format/Info          : Advanced Video Codec
  5. Format profile         : [email]High@L4.1[/email]
  6. Format settings        : CABAC / 2 Ref Frames
  7. Format settings, CABAC       : Yes
  8. Format settings, ReFrames      : 2 frames
  9. Codec ID           : V_MPEG4/ISO/AVC
  10. Duration           : 2 h 3 min
  11. Bit rate mode          : Variable
  12. Width            : 1 920 pixels
  13. Height           : 1 080 pixels
  14. Display aspect ratio       : 16:9
  15. Frame rate mode        : Constant
  16. Frame rate           : 24.000 FPS
  17. Color space          : YUV
  18. Chroma subsampling       : 4:2:0
  19. Bit depth          : 8 bits
  20. Scan type          : Progressive
  21. Title            : What.Happened.to.Monday.2017.1080p.BluRay.REMUX.AVC.DTS-HD.MA.5.1-FGT
  22. Language           : English
  23. Default            : No
  24. Forced           : No

  25. Audio #1
  26. ID             : 2
  27. Format           : DTS
  28. Format/Info          : Digital Theater Systems
  29. Format profile         : MA / Core
  30. Codec ID           : A_DTS
  31. Duration           : 2 h 3 min
  32. Bit rate mode          : Variable / Constant
  33. Bit rate           : Unknown / 1 509 kb/s
  34. Channel(s)           : 6 channels
  35. Channel positions        : Front: L C R, Side: L R, LFE
  36. Sampling rate          : 48.0 kHz
  37. Frame rate           : 93.750 FPS (512 SPF)
  38. Bit depth          : 16 bits
  39. Compression mode         : Lossless / Lossy
  40. Title            : What.Happened.to.Monday.2017.1080p.BluRay.REMUX.AVC.DTS-HD.MA.5.1-FGT
  41. Language           : English
  42. Default            : Yes
  43. Forced           : No

  44. Audio #2
  45. ID             : 3
  46. Format           : DTS
  47. Format/Info          : Digital Theater Systems
  48. Codec ID           : A_DTS
  49. Duration           : 2 h 3 min
  50. Bit rate mode          : Constant
  51. Bit rate           : 1 509 kb/s
  52. Channel(s)           : 6 channels
  53. Channel positions        : Front: L C R, Side: L R, LFE
  54. Sampling rate          : 48.0 kHz
  55. Frame rate           : 93.750 FPS (512 SPF)
  56. Bit depth          : 16 bits
  57. Compression mode         : Lossy
  58. Stream size          : 1.30GB (4%)
  59. Title            : What.Happened.to.Monday.2017.1080p.BluRay.REMUX.AVC.DTS-HD.MA.5.1-FGT
  60. Language           : English
  61. Default            : No
  62. Forced           : No

  63. Audio #3
  64. ID             : 4
  65. Format           : DTS
  66. Format/Info          : Digital Theater Systems
  67. Format profile         : MA / Core
  68. Codec ID           : A_DTS
  69. Duration           : 2 h 3 min
  70. Bit rate mode          : Variable / Constant
  71. Bit rate           : Unknown / 1 509 kb/s
  72. Channel(s)           : 6 channels
  73. Channel positions        : Front: L C R, Side: L R, LFE
  74. Sampling rate          : 48.0 kHz
  75. Frame rate           : 93.750 FPS (512 SPF)
  76. Bit depth          : 16 bits
  77. Compression mode         : Lossless / Lossy
  78. Title            : What.Happened.to.Monday.2017.1080p.BluRay.REMUX.AVC.DTS-HD.MA.5.1-FGT
  79. Language           : French
  80. Default            : No
  81. Forced           : No

  82. Audio #4
  83. ID             : 5
  84. Format           : DTS
  85. Format/Info          : Digital Theater Systems
  86. Codec ID           : A_DTS
  87. Duration           : 2 h 3 min
  88. Bit rate mode          : Constant
  89. Bit rate           : 1 509 kb/s
  90. Channel(s)           : 6 channels
  91. Channel positions        : Front: L C R, Side: L R, LFE
  92. Sampling rate          : 48.0 kHz
  93. Frame rate           : 93.750 FPS (512 SPF)
  94. Bit depth          : 16 bits
  95. Compression mode         : Lossy
  96. Stream size          : 1.30GB (4%)
  97. Title            : What.Happened.to.Monday.2017.1080p.BluRay.REMUX.AVC.DTS-HD.MA.5.1-FGT
  98. Language           : French
  99. Default            : No
  100. Forced           : No

  101. Audio #5
  102. ID             : 6
  103. Format           : DTS
  104. Format/Info          : Digital Theater Systems
  105. Format profile         : MA / Core
  106. Codec ID           : A_DTS
  107. Duration           : 2 h 3 min
  108. Bit rate mode          : Variable / Constant
  109. Bit rate           : Unknown / 768 kb/s
  110. Channel(s)           : 2 channels
  111. Channel positions        :/ Front: L R
  112. Sampling rate          : 48.0 kHz
  113. Frame rate           : 93.750 FPS (512 SPF)
  114. Bit depth          : 16 bits
  115. Compression mode         : Lossless / Lossy
  116. Title            : What.Happened.to.Monday.2017.1080p.BluRay.REMUX.AVC.DTS-HD.MA.5.1-FGT
  117. Language           : French
  118. Default            : No
  119. Forced           : No

  120. Audio #6
  121. ID             : 7
  122. Format           : DTS
  123. Format/Info          : Digital Theater Systems
  124. Codec ID           : A_DTS
  125. Duration           : 2 h 3 min
  126. Bit rate mode          : Constant
  127. Bit rate           : 768 kb/s
  128. Channel(s)           : 2 channels
  129. Channel positions        : Front: L R
  130. Sampling rate          : 48.0 kHz
  131. Frame rate           : 93.750 FPS (512 SPF)
  132. Bit depth          : 16 bits
  133. Compression mode         : Lossy
  134. Stream size          : 679 MiB (2%)
  135. Title            : What.Happened.to.Monday.2017.1080p.BluRay.REMUX.AVC.DTS-HD.MA.5.1-FGT
  136. Language           : French
  137. Default            : No
  138. Forced           : No

  139. Audio #7
  140. ID             : 8
  141. Format           : DTS
  142. Format/Info          : Digital Theater Systems
  143. Format profile         : MA / Core
  144. Codec ID           : A_DTS
  145. Duration           : 2 h 3 min
  146. Bit rate mode          : Variable / Constant
  147. Bit rate           : Unknown / 768 kb/s
  148. Channel(s)           : 2 channels
  149. Channel positions        :/ Front: L R
  150. Sampling rate          : 48.0 kHz
  151. Frame rate           : 93.750 FPS (512 SPF)
  152. Bit depth          : 16 bits
  153. Compression mode         : Lossless / Lossy
  154. Title            : What.Happened.to.Monday.2017.1080p.BluRay.REMUX.AVC.DTS-HD.MA.5.1-FGT
  155. Language           : English
  156. Default            : No
  157. Forced           : No

  158. Audio #8
  159. ID             : 9
  160. Format           : DTS
  161. Format/Info          : Digital Theater Systems
  162. Codec ID           : A_DTS
  163. Duration           : 2 h 3 min
  164. Bit rate mode          : Constant
  165. Bit rate           : 768 kb/s
  166. Channel(s)           : 2 channels
  167. Channel positions        : Front: L R
  168. Sampling rate          : 48.0 kHz
  169. Frame rate           : 93.750 FPS (512 SPF)
  170. Bit depth          : 16 bits
  171. Compression mode         : Lossy
  172. Stream size          : 679 MiB (2%)
  173. Title            : What.Happened.to.Monday.2017.1080p.BluRay.REMUX.AVC.DTS-HD.MA.5.1-FGT
  174. Language           : English
  175. Default            : No
  176. Forced           : No

  177. Audio #9
  178. ID             : 10
  179. Format           : DTS
  180. Format/Info          : Digital Theater Systems
  181. Format profile         : MA / Core
  182. Codec ID           : A_DTS
  183. Duration           : 2 h 3 min
  184. Bit rate mode          : Variable / Constant
  185. Bit rate           : Unknown / 768 kb/s
  186. Channel(s)           : 2 channels
  187. Channel positions        :/ Front: L R
  188. Sampling rate          : 48.0 kHz
  189. Frame rate           : 93.750 FPS (512 SPF)
  190. Bit depth          : 16 bits
  191. Compression mode         : Lossless / Lossy
  192. Title            : What.Happened.to.Monday.2017.1080p.BluRay.REMUX.AVC.DTS-HD.MA.5.1-FGT
  193. Language           : French
  194. Default            : No
  195. Forced           : No

  196. Audio #10
  197. ID             : 11
  198. Format           : DTS
  199. Format/Info          : Digital Theater Systems
  200. Codec ID           : A_DTS
  201. Duration           : 2 h 3 min
  202. Bit rate mode          : Constant
  203. Bit rate           : 768 kb/s
  204. Channel(s)           : 2 channels
  205. Channel positions        : Front: L R
  206. Sampling rate          : 48.0 kHz
  207. Frame rate           : 93.750 FPS (512 SPF)
  208. Bit depth          : 16 bits
  209. Compression mode         : Lossy
  210. Stream size          : 679 MiB (2%)
  211. Title            : What.Happened.to.Monday.2017.1080p.BluRay.REMUX.AVC.DTS-HD.MA.5.1-FGT
  212. Language           : French
  213. Default            : No
  214. Forced           : No

  215. Text #1
  216. ID             : 12
  217. Format           : PGS
  218. Muxing mode          : zlib
  219. Codec ID           : S_HDMV/PGS
  220. Codec ID/Info          : Picture based subtitle format used on BDs/HD-DVDs
  221. Title            : French-PGS
  222. Language           : French
  223. Default            : No
  224. Forced           : No

  225. Text #2
  226. ID             : 13
  227. Format           : PGS
  228. Muxing mode          : zlib
  229. Codec ID           : S_HDMV/PGS
  230. Codec ID/Info          : Picture based subtitle format used on BDs/HD-DVDs
  231. Title            : French-PGS
  232. Language           : French
  233. Default            : No
  234. Forced           : No

  235. Text #3
  236. ID             : 14
  237. Format           : PGS
  238. Muxing mode          : zlib
  239. Codec ID           : S_HDMV/PGS
  240. Codec ID/Info          : Picture based subtitle format used on BDs/HD-DVDs
  241. Title            : French-PGS
  242. Language           : French
  243. Default            : No
  244. Forced           : No

  245. Menu
  246. 00:00:00.000         : fr:Chapitre 01
  247. 00:09:13.666         : fr:Chapitre 02
  248. 00:20:16.750         : fr:Chapitre 03
  249. 00:29:12.333         : fr:Chapitre 04
  250. 00:40:32.000         : fr:Chapitre 05
  251. 00:51:51.750         : fr:Chapitre 06
  252. 00:58:04.791         : fr:Chapitre 07
  253. 01:14:19.833         : fr:Chapitre 08
  254. 01:22:25.000         : fr:Chapitre 09
  255. 01:32:37.875         : fr:Chapitre 10
  256. 01:42:29.791         : fr:Chapitre 11
  257. 01:49:55.875         : fr:Chapitre 12



复制代码
复制代码
224343fx52kda1zplmmy13.jpg 224344muuxxxz2zzxv634u.jpg 224345xr1injx8mnrj11xb.jpg 224346res0s2q31v2wwvt6.jpg 224347ws58t3do31oz3xs1.jpg 224348citzi8nt90lgfgw6.jpg

                                



回复

使用道具 举报

懒得打字嘛,点击右侧快捷回复 【右侧内容,后台自定义】
您需要登录后才可以回帖 登录 | 立即加入

本版积分规则

Archiver| |网站地图

Copyright © 2024 Comsenz Inc. Powered by 蓝光电影网

本站内容由用户自主分享和转载自互联网,转载目的在于传递更多信息,并不代表本网赞同其观点和对其真实性负责。

如有侵权、违反国家法律政策行为,请联系我们,我们会第一时间及时清除和处理!

举报反馈邮箱:4k1080.com@gmail.com

快速回复 返回顶部 返回列表