找回密码

查看: 2687|回复: 3

城中大盗/窃盗城 The.Town.2010.2160p.BluRay.REMUX.HEVC.DTS-HD.MA.5.1-FGT 52.81GB

[复制链接]
蓝光币
2039
发表于 2017-12-22 16:44:11 | 显示全部楼层 |阅读模式
城中大盗/窃盗城 The.Town.2010.2160p.BluRay.REMUX.HEVC.DTS-HD.MA.5.1-FGT 52.81GB-1.jpg
◎译  名 城中大盗/窃盗城/狂盗之城/小镇/镇上/城区
◎片  名 The Town
◎年  代 2010
◎产  地 美国
◎类  别 犯罪/剧情/惊悚
◎语  言 英语
◎上映日期 2010-09-17
◎IMDb评分  7.6/10 from 302,458 users
◎IMDb链接  http://www.imdb.com/title/tt0840361/
◎豆瓣评分 7.5/10 from 48,258 users
◎豆瓣链接 https://movie.douban.com/subject/3217165/
◎片  长 125分钟(戏院版)/150分钟(加长版)
◎导  演 本·阿弗莱克 Ben Affleck
◎主  演 本·阿弗莱克 Ben Affleck
      丽贝卡·豪尔 Rebecca Hall
      乔恩·哈姆 Jon Hamm
      杰瑞米·雷纳 Jeremy Renner
      布蕾克·莱弗利 Blake Lively
      提图斯·维里沃 Titus Welliver
      皮特·波斯尔思韦特 Pete Postlethwaite
      克里斯·库珀 Chris Cooper
      Slaine
      Owen Burke
      Dennis McLaughlin
      Corena Chase
      Brian Scannell
      Kerri Dunbar
      Tony V.

◎简  介

  美国东部,位于波士顿近郊的查尔斯城,仿佛一个被法制忘记的失乐园。城中爱尔兰裔的工薪阶级占有很大比例,地区贫苦的生活条件和使人没法喘息的压力让人们铤而走险,银行抢劫案时有发生,一切都变得癫狂无望。某个早晨,美丽的银行司理人克莱尔·吉塞(丽贝卡·豪尔 Rebecca Hall 饰)遭受一伙头戴骷髅面具的劫匪,而她更被劫持为人质。希奇的是,克莱尔终极意外生还,似乎这个早晨的变故从未发生过一样。一天,她相逢了高峻英俊的男人道格·麦克雷(本·阿弗莱克 Ben Affleck 饰),奇妙的缘分就此展开,两人的命运也由此改变……
  本片按照库克·霍根(Chuck Hogan)的原著改编。

◎获奖情况

  第83届奥斯卡金像奖  (2011)
  最好男配角(提名) 杰瑞米·雷纳

  第68届金球奖  (2011)
  电影类 最好男配角(提名) 杰瑞米·雷纳

  第11届美国电影学会奖  (2010)
  年度佳片

  第9届华盛顿影评人协会奖  (2010)
  最好群戏

  第15届圣地亚哥影评人协会奖  (2010)
  年度劳模 丽贝卡·豪尔
  最好女配角(提名) 布蕾克·莱弗利
  最好男配角(提名) 杰瑞米·雷纳
  最好改编剧本(提名) 本·阿弗莱克 / 彼得·克莱格 / 亚伦·斯托卡德


  1. Video
  2. ID                                       : 1
  3. Format                                   : HEVC
  4. Format/Info                              : High Efficiency Video Coding
  5. Format profile                           : Main [url=mailto:10@L5.1]10@L5.1[/url]@High
  6. Codec ID                                 : V_MPEGH/ISO/HEVC
  7. Duration                                 : 2 h 4 min
  8. Bit rate                                 : 51.8 Mb/s
  9. Width                                    : 3 840 pixels
  10. Height                                   : 2 160 pixels
  11. Display aspect ratio                     : 16:9
  12. Frame rate mode                          : Constant
  13. Frame rate                               : 23.976 (24000/1001) FPS
  14. Color space                              : YUV
  15. Chroma subsampling                       : 4:2:0 (Type 2)
  16. Bit depth                                : 10 bits
  17. Bits/(Pixel*Frame)                       : 0.261
  18. Stream size                              : 45.1GB (85%)
  19. Title                                    : The.Town.2010.2160p.BluRay.REMUX.HEVC.DTS-HD.MA.5.1-FGT
  20. Default                                  : Yes
  21. Forced                                   : No
  22. Color range                              : Limited
  23. Color primaries                          : BT.2020
  24. Transfer characteristics                 : PQ
  25. Matrix coefficients                      : BT.2020 non-constant
  26. Mastering display color primaries        : R: x=0.680000 y=0.320000, G: x=0.265000 y=0.690000, B: x=0.150000 y=0.060000, White point: x=0.312700 y=0.329000
  27. Mastering display luminance              : min: 0.0050 cd/m2, max: 4000.0000 cd/m2
  28. Maximum Content Light Level              : 1800 cd/m2
  29. Maximum Frame-Average Light Level        : 1403 cd/m2

  30. Audio #1
  31. ID                                       : 2
  32. Format                                   : DTS
  33. Format/Info                              : Digital Theater Systems
  34. Format profile                           : MA / Core
  35. Codec ID                                 : A_DTS
  36. Duration                                 : 2 h 4 min
  37. Bit rate mode                            : Variable / Constant
  38. Bit rate                                 : 2 722 kb/s / 1 509 kb/s
  39. Channel(s)                               : 6 channels
  40. Channel positions                        : Front: L C R, Side: L R, LFE
  41. Sampling rate                            : 48.0 kHz
  42. Frame rate                               : 93.750 FPS (512 SPF)
  43. Bit depth                                : 24 bits
  44. Compression mode                         : Lossless / Lossy
  45. Stream size                              : 2.37GB (4%)
  46. Title                                    : The.Town.2010.2160p.BluRay.REMUX.HEVC.DTS-HD.MA.5.1-FGT
  47. Language                                 : English
  48. Default                                  : Yes
  49. Forced                                   : No

  50. Audio #2
  51. ID                                       : 3
  52. Format                                   : AC-3
  53. Format/Info                              : Audio Coding 3
  54. Codec ID                                 : A_AC3
  55. Duration                                 : 2 h 4 min
  56. Bit rate mode                            : Constant
  57. Bit rate                                 : 192 kb/s
  58. Channel(s)                               : 2 channels
  59. Channel positions                        : Front: L R
  60. Sampling rate                            : 48.0 kHz
  61. Frame rate                               : 31.250 FPS (1536 SPF)
  62. Bit depth                                : 16 bits
  63. Compression mode                         : Lossy
  64. Delay relative to video                  : 23 ms
  65. Stream size                              : 171 MiB (0%)
  66. Title                                    : The.Town.2010.2160p.BluRay.REMUX.HEVC.DTS-HD.MA.5.1-FGT
  67. Language                                 : English
  68. Service kind                             : Complete Main
  69. Default                                  : No
  70. Forced                                   : No

  71. Audio #3
  72. ID                                       : 4
  73. Format                                   : AC-3
  74. Format/Info                              : Audio Coding 3
  75. Codec ID                                 : A_AC3
  76. Duration                                 : 2 h 4 min
  77. Bit rate mode                            : Constant
  78. Bit rate                                 : 448 kb/s
  79. Channel(s)                               : 6 channels
  80. Channel positions                        : Front: L C R, Side: L R, LFE
  81. Sampling rate                            : 48.0 kHz
  82. Frame rate                               : 31.250 FPS (1536 SPF)
  83. Bit depth                                : 16 bits
  84. Compression mode                         : Lossy
  85. Delay relative to video                  : 23 ms
  86. Stream size                              : 400 MiB (1%)
  87. Title                                    : The.Town.2010.2160p.BluRay.REMUX.HEVC.DTS-HD.MA.5.1-FGT
  88. Language                                 : French
  89. Service kind                             : Complete Main
  90. Default                                  : No
  91. Forced                                   : No

  92. Audio #4
  93. ID                                       : 5
  94. Format                                   : AC-3
  95. Format/Info                              : Audio Coding 3
  96. Codec ID                                 : A_AC3
  97. Duration                                 : 2 h 4 min
  98. Bit rate mode                            : Constant
  99. Bit rate                                 : 448 kb/s
  100. Channel(s)                               : 6 channels
  101. Channel positions                        : Front: L C R, Side: L R, LFE
  102. Sampling rate                            : 48.0 kHz
  103. Frame rate                               : 31.250 FPS (1536 SPF)
  104. Bit depth                                : 16 bits
  105. Compression mode                         : Lossy
  106. Delay relative to video                  : 23 ms
  107. Stream size                              : 400 MiB (1%)
  108. Title                                    : The.Town.2010.2160p.BluRay.REMUX.HEVC.DTS-HD.MA.5.1-FGT
  109. Language                                 : German
  110. Service kind                             : Complete Main
  111. Default                                  : No
  112. Forced                                   : No

  113. Audio #5
  114. ID                                       : 6
  115. Format                                   : AC-3
  116. Format/Info                              : Audio Coding 3
  117. Codec ID                                 : A_AC3
  118. Duration                                 : 2 h 4 min
  119. Bit rate mode                            : Constant
  120. Bit rate                                 : 448 kb/s
  121. Channel(s)                               : 6 channels
  122. Channel positions                        : Front: L C R, Side: L R, LFE
  123. Sampling rate                            : 48.0 kHz
  124. Frame rate                               : 31.250 FPS (1536 SPF)
  125. Bit depth                                : 16 bits
  126. Compression mode                         : Lossy
  127. Delay relative to video                  : 23 ms
  128. Stream size                              : 400 MiB (1%)
  129. Title                                    : The.Town.2010.2160p.BluRay.REMUX.HEVC.DTS-HD.MA.5.1-FGT
  130. Language                                 : Italian
  131. Service kind                             : Complete Main
  132. Default                                  : No
  133. Forced                                   : No

  134. Audio #6
  135. ID                                       : 7
  136. Format                                   : AC-3
  137. Format/Info                              : Audio Coding 3
  138. Codec ID                                 : A_AC3
  139. Duration                                 : 2 h 4 min
  140. Bit rate mode                            : Constant
  141. Bit rate                                 : 448 kb/s
  142. Channel(s)                               : 6 channels
  143. Channel positions                        : Front: L C R, Side: L R, LFE
  144. Sampling rate                            : 48.0 kHz
  145. Frame rate                               : 31.250 FPS (1536 SPF)
  146. Bit depth                                : 16 bits
  147. Compression mode                         : Lossy
  148. Delay relative to video                  : 23 ms
  149. Stream size                              : 400 MiB (1%)
  150. Title                                    : The.Town.2010.2160p.BluRay.REMUX.HEVC.DTS-HD.MA.5.1-FGT
  151. Language                                 : Spanish
  152. Service kind                             : Complete Main
  153. Default                                  : No
  154. Forced                                   : No

  155. Audio #7
  156. ID                                       : 8
  157. Format                                   : AC-3
  158. Format/Info                              : Audio Coding 3
  159. Codec ID                                 : A_AC3
  160. Duration                                 : 2 h 4 min
  161. Bit rate mode                            : Constant
  162. Bit rate                                 : 448 kb/s
  163. Channel(s)                               : 6 channels
  164. Channel positions                        : Front: L C R, Side: L R, LFE
  165. Sampling rate                            : 48.0 kHz
  166. Frame rate                               : 31.250 FPS (1536 SPF)
  167. Bit depth                                : 16 bits
  168. Compression mode                         : Lossy
  169. Delay relative to video                  : 23 ms
  170. Stream size                              : 400 MiB (1%)
  171. Title                                    : The.Town.2010.2160p.BluRay.REMUX.HEVC.DTS-HD.MA.5.1-FGT
  172. Language                                 : Spanish
  173. Service kind                             : Complete Main
  174. Default                                  : No
  175. Forced                                   : No

  176. Audio #8
  177. ID                                       : 9
  178. Format                                   : AC-3
  179. Format/Info                              : Audio Coding 3
  180. Codec ID                                 : A_AC3
  181. Duration                                 : 2 h 4 min
  182. Bit rate mode                            : Constant
  183. Bit rate                                 : 448 kb/s
  184. Channel(s)                               : 6 channels
  185. Channel positions                        : Front: L C R, Side: L R, LFE
  186. Sampling rate                            : 48.0 kHz
  187. Frame rate                               : 31.250 FPS (1536 SPF)
  188. Bit depth                                : 16 bits
  189. Compression mode                         : Lossy
  190. Delay relative to video                  : 23 ms
  191. Stream size                              : 400 MiB (1%)
  192. Title                                    : The.Town.2010.2160p.BluRay.REMUX.HEVC.DTS-HD.MA.5.1-FGT
  193. Language                                 : Portuguese
  194. Service kind                             : Complete Main
  195. Default                                  : No
  196. Forced                                   : No

  197. Audio #9
  198. ID                                       : 10
  199. Format                                   : AC-3
  200. Format/Info                              : Audio Coding 3
  201. Codec ID                                 : A_AC3
  202. Duration                                 : 2 h 4 min
  203. Bit rate mode                            : Constant
  204. Bit rate                                 : 448 kb/s
  205. Channel(s)                               : 6 channels
  206. Channel positions                        : Front: L C R, Side: L R, LFE
  207. Sampling rate                            : 48.0 kHz
  208. Frame rate                               : 31.250 FPS (1536 SPF)
  209. Bit depth                                : 16 bits
  210. Compression mode                         : Lossy
  211. Delay relative to video                  : 23 ms
  212. Stream size                              : 400 MiB (1%)
  213. Title                                    : The.Town.2010.2160p.BluRay.REMUX.HEVC.DTS-HD.MA.5.1-FGT
  214. Language                                 : Czech
  215. Service kind                             : Complete Main
  216. Default                                  : No
  217. Forced                                   : No

  218. Audio #10
  219. ID                                       : 11
  220. Format                                   : AC-3
  221. Format/Info                              : Audio Coding 3
  222. Codec ID                                 : A_AC3
  223. Duration                                 : 2 h 4 min
  224. Bit rate mode                            : Constant
  225. Bit rate                                 : 448 kb/s
  226. Channel(s)                               : 6 channels
  227. Channel positions                        : Front: L C R, Side: L R, LFE
  228. Sampling rate                            : 48.0 kHz
  229. Frame rate                               : 31.250 FPS (1536 SPF)
  230. Bit depth                                : 16 bits
  231. Compression mode                         : Lossy
  232. Delay relative to video                  : 23 ms
  233. Stream size                              : 400 MiB (1%)
  234. Title                                    : The.Town.2010.2160p.BluRay.REMUX.HEVC.DTS-HD.MA.5.1-FGT
  235. Language                                 : Polish
  236. Service kind                             : Complete Main
  237. Default                                  : No
  238. Forced                                   : No

  239. Audio #11
  240. ID                                       : 12
  241. Format                                   : AC-3
  242. Format/Info                              : Audio Coding 3
  243. Codec ID                                 : A_AC3
  244. Duration                                 : 2 h 4 min
  245. Bit rate mode                            : Constant
  246. Bit rate                                 : 448 kb/s
  247. Channel(s)                               : 6 channels
  248. Channel positions                        : Front: L C R, Side: L R, LFE
  249. Sampling rate                            : 48.0 kHz
  250. Frame rate                               : 31.250 FPS (1536 SPF)
  251. Bit depth                                : 16 bits
  252. Compression mode                         : Lossy
  253. Delay relative to video                  : 23 ms
  254. Stream size                              : 400 MiB (1%)
  255. Title                                    : The.Town.2010.2160p.BluRay.REMUX.HEVC.DTS-HD.MA.5.1-FGT
  256. Language                                 : Russian
  257. Service kind                             : Complete Main
  258. Default                                  : No
  259. Forced                                   : No

  260. Audio #12
  261. ID                                       : 13
  262. Format                                   : AC-3
  263. Format/Info                              : Audio Coding 3
  264. Codec ID                                 : A_AC3
  265. Duration                                 : 2 h 4 min
  266. Bit rate mode                            : Constant
  267. Bit rate                                 : 448 kb/s
  268. Channel(s)                               : 6 channels
  269. Channel positions                        : Front: L C R, Side: L R, LFE
  270. Sampling rate                            : 48.0 kHz
  271. Frame rate                               : 31.250 FPS (1536 SPF)
  272. Bit depth                                : 16 bits
  273. Compression mode                         : Lossy
  274. Delay relative to video                  : 23 ms
  275. Stream size                              : 400 MiB (1%)
  276. Title                                    : The.Town.2010.2160p.BluRay.REMUX.HEVC.DTS-HD.MA.5.1-FGT
  277. Language                                 : Thai
  278. Service kind                             : Complete Main
  279. Default                                  : No
  280. Forced                                   : No

  281. Audio #13
  282. ID                                       : 14
  283. Format                                   : AC-3
  284. Format/Info                              : Audio Coding 3
  285. Codec ID                                 : A_AC3
  286. Duration                                 : 2 h 4 min
  287. Bit rate mode                            : Constant
  288. Bit rate                                 : 448 kb/s
  289. Channel(s)                               : 6 channels
  290. Channel positions                        : Front: L C R, Side: L R, LFE
  291. Sampling rate                            : 48.0 kHz
  292. Frame rate                               : 31.250 FPS (1536 SPF)
  293. Bit depth                                : 16 bits
  294. Compression mode                         : Lossy
  295. Delay relative to video                  : 23 ms
  296. Stream size                              : 400 MiB (1%)
  297. Title                                    : The.Town.2010.2160p.BluRay.REMUX.HEVC.DTS-HD.MA.5.1-FGT
  298. Language                                 : Turkish
  299. Service kind                             : Complete Main
  300. Default                                  : No
  301. Forced                                   : No

  302. Audio #14
  303. ID                                       : 15
  304. Format                                   : AC-3
  305. Format/Info                              : Audio Coding 3
  306. Codec ID                                 : A_AC3
  307. Duration                                 : 2 h 4 min
  308. Bit rate mode                            : Constant
  309. Bit rate                                 : 448 kb/s
  310. Channel(s)                               : 6 channels
  311. Channel positions                        : Front: L C R, Side: L R, LFE
  312. Sampling rate                            : 48.0 kHz
  313. Frame rate                               : 31.250 FPS (1536 SPF)
  314. Bit depth                                : 16 bits
  315. Compression mode                         : Lossy
  316. Delay relative to video                  : 23 ms
  317. Stream size                              : 400 MiB (1%)
  318. Title                                    : The.Town.2010.2160p.BluRay.REMUX.HEVC.DTS-HD.MA.5.1-FGT
  319. Language                                 : Japanese
  320. Service kind                             : Complete Main
  321. Default                                  : No
  322. Forced                                   : No

  323. Audio #15
  324. ID                                       : 16
  325. Format                                   : AC-3
  326. Format/Info                              : Audio Coding 3
  327. Codec ID                                 : A_AC3
  328. Duration                                 : 2 h 4 min
  329. Bit rate mode                            : Constant
  330. Bit rate                                 : 192 kb/s
  331. Channel(s)                               : 2 channels
  332. Channel positions                        : Front: L R
  333. Sampling rate                            : 48.0 kHz
  334. Frame rate                               : 31.250 FPS (1536 SPF)
  335. Bit depth                                : 16 bits
  336. Compression mode                         : Lossy
  337. Delay relative to video                  : 23 ms
  338. Stream size                              : 171 MiB (0%)
  339. Title                                    : The.Town.2010.2160p.BluRay.REMUX.HEVC.DTS-HD.MA.5.1-FGT
  340. Language                                 : English
  341. Service kind                             : Complete Main
  342. Default                                  : No
  343. Forced                                   : No

  344. Text #1
  345. ID                                       : 17
  346. Format                                   : PGS
  347. Muxing mode                              : zlib
  348. Codec ID                                 : S_HDMV/PGS
  349. Codec ID/Info                            : Picture based subtitle format used on BDs/HD-DVDs
  350. Duration                                 : 2 h 2 min
  351. Bit rate                                 : 35.8 kb/s
  352. Count of elements                        : 3066
  353. Stream size                              : 31.5 MiB (0%)
  354. Title                                    : English-PGS
  355. Language                                 : English
  356. Default                                  : Yes
  357. Forced                                   : No

  358. Text #2
  359. ID                                       : 18
  360. Format                                   : PGS
  361. Muxing mode                              : zlib
  362. Codec ID                                 : S_HDMV/PGS
  363. Codec ID/Info                            : Picture based subtitle format used on BDs/HD-DVDs
  364. Duration                                 : 2 h 3 min
  365. Bit rate                                 : 24.4 kb/s
  366. Count of elements                        : 2876
  367. Stream size                              : 21.6 MiB (0%)
  368. Title                                    : French-PGS
  369. Language                                 : French
  370. Default                                  : No
  371. Forced                                   : No

  372. Text #3
  373. ID                                       : 19
  374. Format                                   : PGS
  375. Muxing mode                              : zlib
  376. Codec ID                                 : S_HDMV/PGS
  377. Codec ID/Info                            : Picture based subtitle format used on BDs/HD-DVDs
  378. Duration                                 : 2 h 3 min
  379. Bit rate                                 : 41.7 kb/s
  380. Count of elements                        : 3200
  381. Stream size                              : 36.9 MiB (0%)
  382. Title                                    : German-PGS
  383. Language                                 : German
  384. Default                                  : No
  385. Forced                                   : No

  386. Text #4
  387. ID                                       : 20
  388. Format                                   : PGS
  389. Muxing mode                              : zlib
  390. Codec ID                                 : S_HDMV/PGS
  391. Codec ID/Info                            : Picture based subtitle format used on BDs/HD-DVDs
  392. Duration                                 : 2 h 3 min
  393. Bit rate                                 : 32.9 kb/s
  394. Count of elements                        : 3104
  395. Stream size                              : 29.2 MiB (0%)
  396. Title                                    : Italian-PGS
  397. Language                                 : Italian
  398. Default                                  : No
  399. Forced                                   : No

  400. Text #5
  401. ID                                       : 21
  402. Format                                   : PGS
  403. Muxing mode                              : zlib
  404. Codec ID                                 : S_HDMV/PGS
  405. Codec ID/Info                            : Picture based subtitle format used on BDs/HD-DVDs
  406. Duration                                 : 2 h 3 min
  407. Bit rate                                 : 27.0 kb/s
  408. Count of elements                        : 2934
  409. Stream size                              : 23.9 MiB (0%)
  410. Title                                    : Spanish-PGS
  411. Language                                 : Spanish
  412. Default                                  : No
  413. Forced                                   : No

  414. Text #6
  415. ID                                       : 22
  416. Format                                   : PGS
  417. Muxing mode                              : zlib
  418. Codec ID                                 : S_HDMV/PGS
  419. Codec ID/Info                            : Picture based subtitle format used on BDs/HD-DVDs
  420. Duration                                 : 2 h 3 min
  421. Bit rate                                 : 26.4 kb/s
  422. Count of elements                        : 2366
  423. Stream size                              : 23.4 MiB (0%)
  424. Title                                    : Dutch-PGS
  425. Language                                 : Dutch
  426. Default                                  : No
  427. Forced                                   : No

  428. Text #7
  429. ID                                       : 23
  430. Format                                   : PGS
  431. Muxing mode                              : zlib
  432. Codec ID                                 : S_HDMV/PGS
  433. Codec ID/Info                            : Picture based subtitle format used on BDs/HD-DVDs
  434. Duration                                 : 2 h 3 min
  435. Bit rate                                 : 25.2 kb/s
  436. Count of elements                        : 3016
  437. Stream size                              : 22.4 MiB (0%)
  438. Title                                    : Chinese-PGS
  439. Language                                 : Chinese
  440. Default                                  : No
  441. Forced                                   : No

  442. Text #8
  443. ID                                       : 24
  444. Format                                   : PGS
  445. Muxing mode                              : zlib
  446. Codec ID                                 : S_HDMV/PGS
  447. Codec ID/Info                            : Picture based subtitle format used on BDs/HD-DVDs
  448. Duration                                 : 2 h 3 min
  449. Bit rate                                 : 25.2 kb/s
  450. Count of elements                        : 2972
  451. Stream size                              : 22.4 MiB (0%)
  452. Title                                    : Chinese-PGS
  453. Language                                 : Chinese
  454. Default                                  : No
  455. Forced                                   : No

  456. Text #9
  457. ID                                       : 25
  458. Format                                   : PGS
  459. Muxing mode                              : zlib
  460. Codec ID                                 : S_HDMV/PGS
  461. Codec ID/Info                            : Picture based subtitle format used on BDs/HD-DVDs
  462. Duration                                 : 2 h 3 min
  463. Bit rate                                 : 23.8 kb/s
  464. Count of elements                        : 3010
  465. Stream size                              : 21.1 MiB (0%)
  466. Title                                    : Korean-PGS
  467. Language                                 : Korean
  468. Default                                  : No
  469. Forced                                   : No

  470. Text #10
  471. ID                                       : 26
  472. Format                                   : PGS
  473. Muxing mode                              : zlib
  474. Codec ID                                 : S_HDMV/PGS
  475. Codec ID/Info                            : Picture based subtitle format used on BDs/HD-DVDs
  476. Duration                                 : 2 h 3 min
  477. Bit rate                                 : 33.7 kb/s
  478. Count of elements                        : 3430
  479. Stream size                              : 29.8 MiB (0%)
  480. Title                                    : Spanish-PGS
  481. Language                                 : Spanish
  482. Default                                  : No
  483. Forced                                   : No

  484. Text #11
  485. ID                                       : 27
  486. Format                                   : PGS
  487. Muxing mode                              : zlib
  488. Codec ID                                 : S_HDMV/PGS
  489. Codec ID/Info                            : Picture based subtitle format used on BDs/HD-DVDs
  490. Duration                                 : 2 h 3 min
  491. Bit rate                                 : 29.9 kb/s
  492. Count of elements                        : 3042
  493. Stream size                              : 26.5 MiB (0%)
  494. Title                                    : Portuguese-PGS
  495. Language                                 : Portuguese
  496. Default                                  : No
  497. Forced                                   : No

  498. Text #12
  499. ID                                       : 28
  500. Format                                   : PGS
  501. Muxing mode                              : zlib
  502. Codec ID                                 : S_HDMV/PGS
  503. Codec ID/Info                            : Picture based subtitle format used on BDs/HD-DVDs
  504. Duration                                 : 2 h 3 min
  505. Bit rate                                 : 16.5 kb/s
  506. Count of elements                        : 3016
  507. Stream size                              : 14.6 MiB (0%)
  508. Title                                    : Arabic-PGS
  509. Language                                 : Arabic
  510. Default                                  : No
  511. Forced                                   : No

  512. Text #13
  513. ID                                       : 29
  514. Format                                   : PGS
  515. Muxing mode                              : zlib
  516. Codec ID                                 : S_HDMV/PGS
  517. Codec ID/Info                            : Picture based subtitle format used on BDs/HD-DVDs
  518. Duration                                 : 2 h 3 min
  519. Bit rate                                 : 28.8 kb/s
  520. Count of elements                        : 2986
  521. Stream size                              : 25.5 MiB (0%)
  522. Title                                    : Czech-PGS
  523. Language                                 : Czech
  524. Default                                  : No
  525. Forced                                   : No

  526. Text #14
  527. ID                                       : 30
  528. Format                                   : PGS
  529. Muxing mode                              : zlib
  530. Codec ID                                 : S_HDMV/PGS
  531. Codec ID/Info                            : Picture based subtitle format used on BDs/HD-DVDs
  532. Duration                                 : 2 h 3 min
  533. Bit rate                                 : 26.0 kb/s
  534. Count of elements                        : 1978
  535. Stream size                              : 23.0 MiB (0%)
  536. Title                                    : Danish-PGS
  537. Language                                 : Danish
  538. Default                                  : No
  539. Forced                                   : No

  540. Text #15
  541. ID                                       : 31
  542. Format                                   : PGS
  543. Muxing mode                              : zlib
  544. Codec ID                                 : S_HDMV/PGS
  545. Codec ID/Info                            : Picture based subtitle format used on BDs/HD-DVDs
  546. Duration                                 : 2 h 3 min
  547. Bit rate                                 : 23.9 kb/s
  548. Count of elements                        : 2464
  549. Stream size                              : 21.1 MiB (0%)
  550. Title                                    : Finnish-PGS
  551. Language                                 : Finnish
  552. Default                                  : No
  553. Forced                                   : No

  554. Text #16
  555. ID                                       : 32
  556. Format                                   : PGS
  557. Muxing mode                              : zlib
  558. Codec ID                                 : S_HDMV/PGS
  559. Codec ID/Info                            : Picture based subtitle format used on BDs/HD-DVDs
  560. Duration                                 : 2 h 3 min
  561. Bit rate                                 : 23.6 kb/s
  562. Count of elements                        : 3034
  563. Stream size                              : 20.9 MiB (0%)
  564. Title                                    : Hebrew-PGS
  565. Language                                 : Hebrew
  566. Default                                  : No
  567. Forced                                   : No

  568. Text #17
  569. ID                                       : 33
  570. Format                                   : PGS
  571. Muxing mode                              : zlib
  572. Codec ID                                 : S_HDMV/PGS
  573. Codec ID/Info                            : Picture based subtitle format used on BDs/HD-DVDs
  574. Duration                                 : 2 h 3 min
  575. Bit rate                                 : 27.4 kb/s
  576. Count of elements                        : 2534
  577. Stream size                              : 24.3 MiB (0%)
  578. Title                                    : Norwegian-PGS
  579. Language                                 : Norwegian
  580. Default                                  : No
  581. Forced                                   : No

  582. Text #18
  583. ID                                       : 34
  584. Format                                   : PGS
  585. Muxing mode                              : zlib
  586. Codec ID                                 : S_HDMV/PGS
  587. Codec ID/Info                            : Picture based subtitle format used on BDs/HD-DVDs
  588. Duration                                 : 2 h 3 min
  589. Bit rate                                 : 28.0 kb/s
  590. Count of elements                        : 2952
  591. Stream size                              : 24.8 MiB (0%)
  592. Title                                    : Polish-PGS
  593. Language                                 : Polish
  594. Default                                  : No
  595. Forced                                   : No

  596. Text #19
  597. ID                                       : 35
  598. Format                                   : PGS
  599. Muxing mode                              : zlib
  600. Codec ID                                 : S_HDMV/PGS
  601. Codec ID/Info                            : Picture based subtitle format used on BDs/HD-DVDs
  602. Duration                                 : 2 h 3 min
  603. Bit rate                                 : 29.4 kb/s
  604. Count of elements                        : 2942
  605. Stream size                              : 26.0 MiB (0%)
  606. Title                                    : Portuguese-PGS
  607. Language                                 : Portuguese
  608. Default                                  : No
  609. Forced                                   : No

  610. Text #20
  611. ID                                       : 36
  612. Format                                   : PGS
  613. Muxing mode                              : zlib
  614. Codec ID                                 : S_HDMV/PGS
  615. Codec ID/Info                            : Picture based subtitle format used on BDs/HD-DVDs
  616. Duration                                 : 2 h 3 min
  617. Bit rate                                 : 28.6 kb/s
  618. Count of elements                        : 3438
  619. Stream size                              : 25.3 MiB (0%)
  620. Title                                    : Russian-PGS
  621. Language                                 : Russian
  622. Default                                  : No
  623. Forced                                   : No

  624. Text #21
  625. ID                                       : 37
  626. Format                                   : PGS
  627. Muxing mode                              : zlib
  628. Codec ID                                 : S_HDMV/PGS
  629. Codec ID/Info                            : Picture based subtitle format used on BDs/HD-DVDs
  630. Duration                                 : 2 h 3 min
  631. Bit rate                                 : 25.2 kb/s
  632. Count of elements                        : 2236
  633. Stream size                              : 22.3 MiB (0%)
  634. Title                                    : Swedish-PGS
  635. Language                                 : Swedish
  636. Default                                  : No
  637. Forced                                   : No

  638. Text #22
  639. ID                                       : 38
  640. Format                                   : PGS
  641. Muxing mode                              : zlib
  642. Codec ID                                 : S_HDMV/PGS
  643. Codec ID/Info                            : Picture based subtitle format used on BDs/HD-DVDs
  644. Duration                                 : 2 h 3 min
  645. Bit rate                                 : 30.0 kb/s
  646. Count of elements                        : 3048
  647. Stream size                              : 26.6 MiB (0%)
  648. Title                                    : Turkish-PGS
  649. Language                                 : Turkish
  650. Default                                  : No
  651. Forced                                   : No

  652. Text #23
  653. ID                                       : 39
  654. Format                                   : PGS
  655. Muxing mode                              : zlib
  656. Codec ID                                 : S_HDMV/PGS
  657. Codec ID/Info                            : Picture based subtitle format used on BDs/HD-DVDs
  658. Duration                                 : 2 h 3 min
  659. Bit rate                                 : 395 b/s
  660. Count of elements                        : 30
  661. Stream size                              : 359 KiB (0%)
  662. Title                                    : French-PGS
  663. Language                                 : French
  664. Default                                  : No
  665. Forced                                   : No

  666. Text #24
  667. ID                                       : 40
  668. Format                                   : PGS
  669. Muxing mode                              : zlib
  670. Codec ID                                 : S_HDMV/PGS
  671. Codec ID/Info                            : Picture based subtitle format used on BDs/HD-DVDs
  672. Duration                                 : 2 h 3 min
  673. Bit rate                                 : 470 b/s
  674. Count of elements                        : 32
  675. Stream size                              : 427 KiB (0%)
  676. Title                                    : German-PGS
  677. Language                                 : German
  678. Default                                  : No
  679. Forced                                   : No

  680. Text #25
  681. ID                                       : 41
  682. Format                                   : PGS
  683. Muxing mode                              : zlib
  684. Codec ID                                 : S_HDMV/PGS
  685. Codec ID/Info                            : Picture based subtitle format used on BDs/HD-DVDs
  686. Duration                                 : 2 h 3 min
  687. Bit rate                                 : 561 b/s
  688. Count of elements                        : 40
  689. Stream size                              : 509 KiB (0%)
  690. Title                                    : Italian-PGS
  691. Language                                 : Italian
  692. Default                                  : No
  693. Forced                                   : No

  694. Text #26
  695. ID                                       : 42
  696. Format                                   : PGS
  697. Muxing mode                              : zlib
  698. Codec ID                                 : S_HDMV/PGS
  699. Codec ID/Info                            : Picture based subtitle format used on BDs/HD-DVDs
  700. Duration                                 : 2 h 3 min
  701. Bit rate                                 : 447 b/s
  702. Count of elements                        : 30
  703. Stream size                              : 406 KiB (0%)
  704. Title                                    : Spanish-PGS
  705. Language                                 : Spanish
  706. Default                                  : No
  707. Forced                                   : No

  708. Text #27
  709. ID                                       : 43
  710. Format                                   : PGS
  711. Muxing mode                              : zlib
  712. Codec ID                                 : S_HDMV/PGS
  713. Codec ID/Info                            : Picture based subtitle format used on BDs/HD-DVDs
  714. Duration                                 : 43 min 45 s
  715. Bit rate                                 : 111 b/s
  716. Count of elements                        : 6
  717. Stream size                              : 35.7 KiB (0%)
  718. Title                                    : Spanish-PGS
  719. Language                                 : Spanish
  720. Default                                  : No
  721. Forced                                   : No

  722. Text #28
  723. ID                                       : 44
  724. Format                                   : PGS
  725. Muxing mode                              : zlib
  726. Codec ID                                 : S_HDMV/PGS
  727. Codec ID/Info                            : Picture based subtitle format used on BDs/HD-DVDs
  728. Duration                                 : 35 min 8 s
  729. Bit rate                                 : 74 b/s
  730. Count of elements                        : 4
  731. Stream size                              : 19.2 KiB (0%)
  732. Title                                    : Portuguese-PGS
  733. Language                                 : Portuguese
  734. Default                                  : No
  735. Forced                                   : No

  736. Text #29
  737. ID                                       : 45
  738. Format                                   : PGS
  739. Muxing mode                              : zlib
  740. Codec ID                                 : S_HDMV/PGS
  741. Codec ID/Info                            : Picture based subtitle format used on BDs/HD-DVDs
  742. Duration                                 : 2 h 3 min
  743. Bit rate                                 : 144 b/s
  744. Count of elements                        : 14
  745. Stream size                              : 131 KiB (0%)
  746. Title                                    : Czech-PGS
  747. Language                                 : Czech
  748. Default                                  : No
  749. Forced                                   : No

  750. Text #30
  751. ID                                       : 46
  752. Format                                   : PGS
  753. Muxing mode                              : zlib
  754. Codec ID                                 : S_HDMV/PGS
  755. Codec ID/Info                            : Picture based subtitle format used on BDs/HD-DVDs
  756. Duration                                 : 2 h 0 min
  757. Bit rate                                 : 23.2 kb/s
  758. Count of elements                        : 3101
  759. Stream size                              : 19.9 MiB (0%)
  760. Title                                    : Japanese-PGS
  761. Language                                 : Japanese
  762. Default                                  : No
  763. Forced                                   : No

  764. Text #31
  765. ID                                       : 47
  766. Format                                   : PGS
  767. Muxing mode                              : zlib
  768. Codec ID                                 : S_HDMV/PGS
  769. Codec ID/Info                            : Picture based subtitle format used on BDs/HD-DVDs
  770. Duration                                 : 2 h 0 min
  771. Bit rate                                 : 551 b/s
  772. Count of elements                        : 239
  773. Stream size                              : 485 KiB (0%)
  774. Title                                    : Japanese-PGS
  775. Language                                 : Japanese
  776. Default                                  : No
  777. Forced                                   : No

  778. Text #32
  779. ID                                       : 48
  780. Format                                   : PGS
  781. Muxing mode                              : zlib
  782. Codec ID                                 : S_HDMV/PGS
  783. Codec ID/Info                            : Picture based subtitle format used on BDs/HD-DVDs
  784. Duration                                 : 2 h 1 min
  785. Bit rate                                 : 41.4 kb/s
  786. Count of elements                        : 3567
  787. Stream size                              : 35.9 MiB (0%)
  788. Title                                    : Japanese-PGS
  789. Language                                 : Japanese
  790. Default                                  : No
  791. Forced                                   : No

  792. Menu
  793. 00:00:00.000                             : en:Chapter 1
  794. 00:10:12.486                             : en:Chapter 2
  795. 00:17:49.693                             : en:Chapter 3
  796. 00:29:18.173                             : en:Chapter 4
  797. 00:38:44.780                             : en:Chapter 5
  798. 00:50:41.580                             : en:Chapter 6
  799. 00:58:39.891                             : en:Chapter 7
  800. 01:09:07.017                             : en:Chapter 8
  801. 01:17:30.228                             : en:Chapter 9
  802. 01:28:08.074                             : en:Chapter 10
  803. 01:37:57.621                             : en:Chapter 11
  804. 01:48:41.264                             : en:Chapter 12
  805. 01:57:47.268                             : en:Chapter 13



复制代码
复制代码
城中大盗/窃盗城 The.Town.2010.2160p.BluRay.REMUX.HEVC.DTS-HD.MA.5.1-FGT 52.81GB-2.png 城中大盗/窃盗城 The.Town.2010.2160p.BluRay.REMUX.HEVC.DTS-HD.MA.5.1-FGT 52.81GB-3.png 城中大盗/窃盗城 The.Town.2010.2160p.BluRay.REMUX.HEVC.DTS-HD.MA.5.1-FGT 52.81GB-4.png 城中大盗/窃盗城 The.Town.2010.2160p.BluRay.REMUX.HEVC.DTS-HD.MA.5.1-FGT 52.81GB-5.png 城中大盗/窃盗城 The.Town.2010.2160p.BluRay.REMUX.HEVC.DTS-HD.MA.5.1-FGT 52.81GB-6.png 城中大盗/窃盗城 The.Town.2010.2160p.BluRay.REMUX.HEVC.DTS-HD.MA.5.1-FGT 52.81GB-7.png





回复

使用道具 举报

懒得打字嘛,点击右侧快捷回复 【右侧内容,后台自定义】
您需要登录后才可以回帖 登录 | 立即加入

本版积分规则

Archiver| |网站地图

Copyright © 2024 Comsenz Inc. Powered by 蓝光电影网

本站内容由用户自主分享和转载自互联网,转载目的在于传递更多信息,并不代表本网赞同其观点和对其真实性负责。

如有侵权、违反国家法律政策行为,请联系我们,我们会第一时间及时清除和处理!

举报反馈邮箱:4k1080.com@gmail.com

快速回复 返回顶部 返回列表