找回密码

查看: 2589|回复: 0

[剧情] 3月的狮子:后篇[内封中字] March.Comes.in.Like.a.Lion.2.2017.720p.BluRay.x264-WiKi 5.00GB

[复制链接]
蓝光币
1992
发表于 2017-12-26 11:37:53 | 显示全部楼层 |阅读模式
123356tbykz7j5n5kejby1.jpg
◎译  名 3月的狮子 后篇 / 三月的狮子 后篇 / March Comes In Like A Lion 2
◎片  名 3月的狮子 后篇 3月のライオン 後編
◎年  代 2017
◎国  家 日本
◎类  别 剧情
◎语  言 日语
◎上映日期 2017-04-22(日本)
◎IMDb评分  6.8/10 from 46 users
◎IMDb链接  http://www.imdb.com/title/tt5556068/
◎豆瓣评分 7.5/10 from 943 users
◎豆瓣链接 https://movie.douban.com/subject/26748877/
◎片  长 139分钟
◎导  演 大友启史
◎主  演 神木隆之介 Ry?nosuke Kamiki
      有村架纯 Kasumi Arimura
      仓科加奈 Kana Kurashina
      染谷将太 Sh?ta Sometani
      清原果耶 Kaya Kiyohara
      佐佐木藏之介 Kuranosuke Sasaki
      加濑亮 Ryo Kase
      伊势谷友介 Y?suke Iseya
      前田吟 Gin Maeda
      高桥平生 Issei Takahashi
      岩松了 Ry? Iwamatsu
      齐木茂 Shigeru Saiki
      中村伦也 Tomoya Nakamura
      尾上寛之 Hiroyuki Onoe
      奥野瑛太 Eita Okuno
      甲本雅裕 Masahiro K?moto
      新津知世 Chise Niitsu
      板谷由夏 Yuka Itaya
      伊藤英明 Hideaki Ito
      丰川悦司 Etsushi Toyokawa

◎简  介 

  《3月的狮子》改编自羽海野千花的同名畅销漫画。电影分为前篇和后篇,后篇首要报告了仆人公对“未来”的展望:他将与他所爱的人起头全新的生活。在碰到了邻人家的三姐妹一年后,桐山零的生活已经起头变化,他逐步意想到了从小被封存于心里的实在的自我。在将棋之外,桐山零起头打仗一个崭新而暖和的天下。在将棋角逐中,他与具有惊人天赋、激烈热衷于将棋的专业选手厮杀,在生活中,他获得了邻人姐妹赐与的家的暖和,这样的暖和如同阳光一般照耀着他,桐山零坚冰一样的心里逐步融化。将棋角逐与温馨家庭,让他在生活充实的同时也学会了爱。



  1. Video
  2. ID                                       : 1
  3. Format                                   : AVC
  4. Format/Info                              : Advanced Video Codec
  5. Format profile                           : [email]High@L4.1[/email]
  6. Format settings, CABAC                   : Yes
  7. Format settings, ReFrames                : 12 frames
  8. Codec ID                                 : V_MPEG4/ISO/AVC
  9. Duration                                 : 2 h 19 min
  10. Bit rate                                 : 4 478 kb/s
  11. Width                                    : 1 280 pixels
  12. Height                                   : 536 pixels
  13. Display aspect ratio                     : 2.40:1
  14. Frame rate mode                          : Constant
  15. Frame rate                               : 23.976 (24000/1001) FPS
  16. Color space                              : YUV
  17. Chroma subsampling                       : 4:2:0
  18. Bit depth                                : 8 bits
  19. Scan type                                : Progressive
  20. Bits/(Pixel*Frame)                       : 0.272
  21. Stream size                              : 4.37GB (87%)
  22. Writing library                          : x264 core 129 r2245+704+36 8e61944 tMod+MixAQ [8-bit@4:2:0 X86_64]
  23. Encoding settings                        : cabac=1 / ref=12 / deblock=1:-3:-3 / analyse=0x3:0x133 / me=umh / subme=11 / psy=1 / fade_compensate=0.00 / psy_rd=1.05:0.10 / mixed_ref=1 / me_range=32 / chroma_me=1 / trellis=2 / 8x8dct=1 / cqm=0 / deadzone=21,11 / fast_pskip=0 / chroma_qp_offset=-3 / threads=18 / lookahead_threads=3 / sliced_threads=0 / nr=0 / decimate=0 / interlaced=0 / bluray_compat=0 / constrained_intra=0 / fgo=0 / bframes=10 / b_pyramid=2 / b_adapt=2 / b_bias=0 / direct=3 / weightb=1 / open_gop=0 / weightp=2 / keyint=250 / keyint_min=23 / scenecut=40 / intra_refresh=0 / rc=2pass / mbtree=0 / bitrate=4478 / ratetol=1.0 / qcomp=0.70 / qpmin=0 / qpmax=69 / qpstep=4 / cplxblur=20.0 / qblur=0.5 / ip_ratio=1.40 / pb_ratio=1.30 / aq=1 / aq-strength=0.90 / aq-sensitivity=10.00 / aq-ifactor=1.00 / aq-pfactor=1.00 / aq-bfactor=1.00 / aq2=0
  24. Language                                 : Japanese
  25. Default                                  : Yes
  26. Forced                                   : No

  27. Audio
  28. ID                                       : 2
  29. Format                                   : AC-3
  30. Format/Info                              : Audio Coding 3
  31. Format settings, Endianness              : Big
  32. Codec ID                                 : A_AC3
  33. Duration                                 : 2 h 19 min
  34. Bit rate mode                            : Constant
  35. Bit rate                                 : 640 kb/s
  36. Channel(s)                               : 6 channels
  37. Channel positions                        : Front: L C R, Side: L R, LFE
  38. Sampling rate                            : 48.0 kHz
  39. Frame rate                               : 31.250 FPS (1536 spf)
  40. Bit depth                                : 16 bits
  41. Compression mode                         : Lossy
  42. Stream size                              : 639 MiB (12%)
  43. Language                                 : Japanese
  44. Service kind                             : Complete Main
  45. Default                                  : Yes
  46. Forced                                   : No

  47. Text #1
  48. ID                                       : 3
  49. Format                                   : ASS
  50. Codec ID                                 : S_TEXT/ASS
  51. Codec ID/Info                            : Advanced Sub Station Alpha
  52. Duration                                 : 2 h 19 min
  53. Bit rate                                 : 55 b/s
  54. Count of elements                        : 1236
  55. Compression mode                         : Lossless
  56. Stream size                              : 56.3 KiB (0%)
  57. Title                                    : Simplified
  58. Language                                 : Chinese
  59. Default                                  : Yes
  60. Forced                                   : No

  61. Text #2
  62. ID                                       : 4
  63. Format                                   : ASS
  64. Codec ID                                 : S_TEXT/ASS
  65. Codec ID/Info                            : Advanced Sub Station Alpha
  66. Duration                                 : 2 h 19 min
  67. Bit rate                                 : 55 b/s
  68. Count of elements                        : 1234
  69. Compression mode                         : Lossless
  70. Stream size                              : 56.3 KiB (0%)
  71. Title                                    : Traditional
  72. Default                                  : No
  73. Forced                                   : No

  74. Menu
  75. 00:00:00.000                             : en:00:00:00.000
  76. 00:09:17.848                             : en:00:09:17.848
  77. 00:16:07.341                             : en:00:16:07.341
  78. 00:27:08.209                             : en:00:27:08.209
  79. 00:40:51.115                             : en:00:40:51.115
  80. 00:51:56.488                             : en:00:51:56.488
  81. 00:58:59.410                             : en:00:58:59.410
  82. 01:07:17.032                             : en:01:07:17.032
  83. 01:16:19.032                             : en:01:16:19.032
  84. 01:24:46.122                             : en:01:24:46.122
  85. 01:31:19.056                             : en:01:31:19.056
  86. 01:40:06.083                             : en:01:40:06.083
  87. 01:51:32.435                             : en:01:51:32.435
  88. 02:06:35.629                             : en:02:06:35.629
  89. 02:12:32.986                             : en:02:12:32.986
  90. 02:19:34.199                             : en:02:19:34.199



复制代码
复制代码
123357jq17ug9lmzm7655l.jpg 123357jw27fwwyw32jmpjj.jpg 123358n7k7qlpdqnsmdd8s.jpg 123359lr4fi3h5iqkck7zc.jpg 123400smmqbmbqhh585ue2.jpg 123400d6duv8v6wcltawuv.jpg





回复

使用道具 举报

懒得打字嘛,点击右侧快捷回复 【右侧内容,后台自定义】
您需要登录后才可以回帖 登录 | 立即加入

本版积分规则

Archiver| |网站地图

Copyright © 2024 Comsenz Inc. Powered by 蓝光电影网

本站内容由用户自主分享和转载自互联网,转载目的在于传递更多信息,并不代表本网赞同其观点和对其真实性负责。

如有侵权、违反国家法律政策行为,请联系我们,我们会第一时间及时清除和处理!

举报反馈邮箱:4k1080.com@gmail.com

快速回复 返回顶部 返回列表