找回密码

蓝光电影网

查看: 417|回复: 0

[爱情] 二缺青年秘史 The.Secret.Lives.of.Dorks.2013.1080p.AMZN.WEBRip.DDP5.1.x264-monkee 3.37GB

[复制链接]
蓝光币
1022
发表于 2020-2-1 14:31:29 | 显示全部楼层 |阅读模式
二缺青年秘史 The.Secret.Lives.of.Dorks.2013.1080p.AMZN.WEBRip.DDP5.1.x264-monkee 3.37GB-1.png

译  名 二缺青年秘史
片  名 The Secret Lives of Dorks
年  代 2013
产  地 美国
类  别 笑剧
语  言 英语
上映日期 2013-09-27
IMDb评分  5.0/10 from 591 users
IMDb链接  https://www.imdb.com/title/tt1418757
豆瓣评分 0/10 from 0 users
豆瓣链接 https://movie.douban.com/subject/3681228/
片  长 91分钟
导  演 Salomé Breziner
编  剧 Nicholas Brandt / Johnny Severin
主  演 盖南·科内尔 Gaelan Connell
       Charlie Stewart
       瓦蕾莎·马兰洛 Vanessa Marano
       博·米尔乔夫 Beau Mirchoff
       Riley Voelkel
       詹姆斯·贝鲁什 James Belushi
       Mark Daugherty
       Tyler Steelman
       詹妮弗·提莉 Jennifer Tilly
       威廉姆·卡特 William Katt
       西摩·卡塞尔 Seymour Cassel
       安德丽·博加特 Andrea Bogart
       凯伊·兰兹 Kay Lenz


标  签 美国 | 青春 | 笑剧 | 电影 | 一流 | dfgs | 42

简  介  

  Samantha (a dork) is in love with Payton (another dork) who is in love with Carrie (a cheerleader), who dates Clark (the football captain). When Clark seeks out Payton for secret comic book lessons, Payton sees his chance to be with Carrie. But Carrie's more interested in setting Payton up with Samantha.
  1. Video
  2. ID                                       : 1
  3. Format                                   : AVC
  4. Format/Info                              : Advanced Video Codec
  5. Format profile                           : [email protected]
  6. Format settings                          : CABAC / 4 Ref Frames
  7. Format settings, CABAC                   : Yes
  8. Format settings, Reference frames        : 4 frames
  9. Codec ID                                 : V_MPEG4/ISO/AVC
  10. Duration                                 : 1 h 31 min
  11. Bit rate                                 : 4 651 kb/s
  12. Width                                    : 1 920 pixels
  13. Height                                   : 1 080 pixels
  14. Display aspect ratio                     : 16:9
  15. Frame rate mode                          : Constant
  16. Frame rate                               : 23.976 (24000/1001) FPS
  17. Color space                              : YUV
  18. Chroma subsampling                       : 4:2:0
  19. Bit depth                                : 8 bits
  20. Scan type                                : Progressive
  21. Bits/(Pixel*Frame)                       : 0.094
  22. Stream size                              : 2.96 GiB (88%)
  23. Default                                  : Yes
  24. Forced                                   : No
  25. Color range                              : Limited
  26. Color primaries                          : BT.709
  27. Transfer characteristics                 : BT.709
  28. Matrix coefficients                      : BT.709

  29. Audio
  30. ID                                       : 2
  31. Format                                   : E-AC-3
  32. Format/Info                              : Enhanced AC-3
  33. Commercial name                          : Dolby Digital Plus
  34. Codec ID                                 : A_EAC3
  35. Duration                                 : 1 h 31 min
  36. Bit rate mode                            : Constant
  37. Bit rate                                 : 640 kb/s
  38. Channel(s)                               : 6 channels
  39. Channel layout                           : L R C LFE Ls Rs
  40. Sampling rate                            : 48.0 kHz
  41. Frame rate                               : 31.250 FPS (1536 SPF)
  42. Compression mode                         : Lossy
  43. Stream size                              : 417 MiB (12%)
  44. Language                                 : English
  45. Service kind                             : Complete Main
  46. Default                                  : Yes
  47. Forced                                   : No

  48. Text #1
  49. ID                                       : 3
  50. Format                                   : UTF-8
  51. Codec ID                                 : S_TEXT/UTF8
  52. Codec ID/Info                            : UTF-8 Plain Text
  53. Duration                                 : 1 h 30 min
  54. Bit rate                                 : 83 b/s
  55. Count of elements                        : 2895
  56. Stream size                              : 55.5 KiB (0%)
  57. Language                                 : English
  58. Default                                  : No
  59. Forced                                   : No

  60. Text #2
  61. ID                                       : 4
  62. Format                                   : UTF-8
  63. Codec ID                                 : S_TEXT/UTF8
  64. Codec ID/Info                            : UTF-8 Plain Text
  65. Duration                                 : 1 h 30 min
  66. Bit rate                                 : 89 b/s
  67. Count of elements                        : 3047
  68. Stream size                              : 59.6 KiB (0%)
  69. Title                                    : SDH
  70. Language                                 : English
  71. Default                                  : No
  72. Forced                                   : No
复制代码

二缺青年秘史 The.Secret.Lives.of.Dorks.2013.1080p.AMZN.WEBRip.DDP5.1.x264-monkee 3.37GB-2.png 二缺青年秘史 The.Secret.Lives.of.Dorks.2013.1080p.AMZN.WEBRip.DDP5.1.x264-monkee 3.37GB-3.png 二缺青年秘史 The.Secret.Lives.of.Dorks.2013.1080p.AMZN.WEBRip.DDP5.1.x264-monkee 3.37GB-4.png






回复

使用道具 举报

懒得打字嘛,点击右侧快捷回复 【右侧内容,后台自定义】
您需要登录后才可以回帖 登录 | 立即加入

本版积分规则

Archiver|小黑屋| 蓝光电影网 |网站地图

Copyright © 2021 Comsenz Inc. Powered by 蓝光电影网

蓝光电影网

本站内容由用户自主分享和转载自互联网,转载目的在于传递更多信息,并不代表本网赞同其观点和对其真实性负责。

如有侵权、违反国家法律政策行为,请联系我们,我们会第一时间及时清除和处理!

举报反馈邮箱:[email protected]

快速回复 返回顶部 返回列表