找回密码

查看: 2605|回复: 5

[动作] 图书馆员:圣杯的诅咒/图书管理员:圣杯的诅咒 The.Librarian.The.Curse.of.the.Judas.Chalice.2008.1080p.BluRay.x264.DTS-FGT 9.64GB

[复制链接]
蓝光币
2048
发表于 2020-7-17 21:53:22 | 显示全部楼层 |阅读模式
图书馆员:圣杯的诅咒/图书治理员:圣杯的诅咒 The.Librarian.The.Curse.of.the.Judas.Chalice.2008.1080p.BluRay.x264.DTS-FGT 9.64GB-1.jpg

译  名 图书馆员:圣杯的诅咒 / 图书治理员:圣杯的诅咒 / 探险奇兵3
片  名 The Librarian: The Curse of the Judas Chalice
年  代 2008
产  地 美国
类  别 行动 / 奇异 / 冒险
语  言 英语
上映日期 2008-12-07
IMDb评分  6.5/10 from 11958 users
IMDb链接  https://www.imdb.com/title/tt1146438
豆瓣评分 6.2/10 from 2101 users
豆瓣链接 https://movie.douban.com/subject/3008677/
片  长 90分钟
导  演 乔纳森·弗雷克斯 Jonathan Frakes
编  剧 Marco Schnabel
主  演 布鲁斯·戴维森 Bruce Davison
       斯坦娜·卡蒂克 Stana Katic
       诺亚·怀尔 Noah Wyle


标  签 冒险 | 美国 | 魔幻 | 美国电影 | 笑剧 | 2008 | 图书馆员 | 吸血鬼

简  介


  在外洋漂泊多年的Flynn Carson(Noah Wyle饰演)回到了纽约大城市图书馆,他筹算重拾昔日的工作,好好安置下来。不外,一个怪梦让他的想法落了空,他被引到了新奥尔良。在那边,他卷入了污名昭著的吸血鬼王子Vlad Dracul的庞大诡计。Flynn必须像之前一样,克服自己的恐惧,庇护极具传奇色彩的神器--《最初的晚饭》中的圣杯。
  Jonathan Frakes将继续饰演Judson,昔日的图书馆员,现在已成为馆长。当过水兵陆战队兵士的Judson在肉搏方面是个妙手。Jane Curtin也将沿袭自己在上一部影片中的脚色--Charlene--呆板、认真、刻薄、没有任何小我豪情的人事主管。
  《Heroes》中的女演员Stana Katic担任第三部的女配角。她的最新电影脚色名叫Simone Renoir,是新奥尔良一家爵士乐俱乐部的歌手,她那催眠般的表演,很快就让花心的Flynn飘飘欲仙。究竟上,她的奥秘身份是圣杯的庇护者,她将不惜一切价格阻止他人获得圣杯的着落。此外,她还有另一重身份--400年前,吸血鬼王子Vlad Dracula将她酿成了吸血鬼(唉,又是吸血鬼),她一向在苦苦寻觅这个偷走她灵魂、让她只能行走在黑夜中的恶魔。Flynn固然愿意帮助她……一段爱恨交集的旅程起头了...
  1. Video
  2. ID                                       : 1
  3. Format                                   : AVC
  4. Format/Info                              : Advanced Video Codec
  5. Format profile                           : High@L4
  6. Format settings                          : CABAC / 4 Ref Frames
  7. Format settings, CABAC                   : Yes
  8. Format settings, Reference frames        : 4 frames
  9. Codec ID                                 : V_MPEG4/ISO/AVC
  10. Duration                                 : 1 h 30 min
  11. Bit rate                                 : 13.8 Mb/s
  12. Width                                    : 1 920 pixels
  13. Height                                   : 1 080 pixels
  14. Display aspect ratio                     : 16:9
  15. Frame rate mode                          : Constant
  16. Frame rate                               : 23.976 (24000/1001/189150) FPS
  17. Color space                              : YUV
  18. Chroma subsampling                       : 4:2:0
  19. Bit depth                                : 8 bits
  20. Scan type                                : Progressive
  21. Bits/(Pixel*Frame)                       : 0.278
  22. Stream size                              : 8.50 GiB (88%)
  23. Writing library                          : x264 core 125 r2200 999b753
  24. Encoding settings                        : cabac=1 / ref=4 / deblock=1:-3:-3 / analyse=0x3:0x112 / me=umh / subme=9 / psy=1 / psy_rd=1.00:0.15 / mixed_ref=1 / me_range=32 / chroma_me=1 / trellis=2 / 8x8dct=1 / cqm=0 / deadzone=21,11 / fast_pskip=0 / chroma_qp_offset=-3 / threads=12 / lookahead_threads=2 / sliced_threads=0 / nr=0 / decimate=0 / interlaced=0 / bluray_compat=0 / constrained_intra=0 / bframes=6 / b_pyramid=2 / b_adapt=2 / b_bias=0 / direct=3 / weightb=1 / open_gop=0 / weightp=2 / keyint=250 / keyint_min=23 / scenecut=40 / intra_refresh=0 / rc_lookahead=50 / rc=2pass / mbtree=1 / bitrate=13800 / ratetol=1.0 / qcomp=0.70 / qpmin=0 / qpmax=69 / qpstep=4 / cplxblur=20.0 / qblur=0.5 / ip_ratio=1.40 / aq=1:1.00
  25. Language                                 : English
  26. Default                                  : Yes
  27. Forced                                   : No
  28. Color range                              : Limited
  29. Matrix coefficients                      : BT.709

  30. Audio
  31. ID                                       : 2
  32. Format                                   : DTS
  33. Format/Info                              : Digital Theater Systems
  34. Codec ID                                 : A_DTS
  35. Duration                                 : 1 h 30 min
  36. Bit rate mode                            : Constant
  37. Bit rate                                 : 1 510 kb/s
  38. Channel(s)                               : 6 channels
  39. Channel layout                           : C L R Ls Rs LFE
  40. Sampling rate                            : 48.0 kHz
  41. Frame rate                               : 93.750 FPS (512 SPF)
  42. Bit depth                                : 24 bits
  43. Compression mode                         : Lossy
  44. Stream size                              : 974 MiB (10%)
  45. Language                                 : English
  46. Default                                  : Yes
  47. Forced                                   : No

  48. Text
  49. ID                                       : 3
  50. Format                                   : UTF-8
  51. Codec ID                                 : S_TEXT/UTF8
  52. Codec ID/Info                            : UTF-8 Plain Text
  53. Language                                 : English
  54. Default                                  : No
  55. Forced                                   : No

  56. Menu
  57. 00:00:00.000                             : :Chapter 01
  58. 00:08:32.011                             : :Chapter 02
  59. 00:15:56.955                             : :Chapter 03
  60. 00:22:48.200                             : :Chapter 04
  61. 00:27:34.319                             : :Chapter 05
  62. 00:36:47.079                             : :Chapter 06
  63. 00:44:46.850                             : :Chapter 07
  64. 00:51:23.663                             : :Chapter 08
  65. 00:58:51.903                             : :Chapter 09
  66. 01:06:33.072                             : :Chapter 10
  67. 01:12:23.046                             : :Chapter 11
  68. 01:22:24.689                             : :Chapter 12
  69. 01:29:33.618                             : :Chapter 13
  70. 01:30:08.154                             : :Chapter 14
复制代码

图书馆员:圣杯的诅咒/图书治理员:圣杯的诅咒 The.Librarian.The.Curse.of.the.Judas.Chalice.2008.1080p.BluRay.x264.DTS-FGT 9.64GB-3.png 图书馆员:圣杯的诅咒/图书治理员:圣杯的诅咒 The.Librarian.The.Curse.of.the.Judas.Chalice.2008.1080p.BluRay.x264.DTS-FGT 9.64GB-4.png 图书馆员:圣杯的诅咒/图书治理员:圣杯的诅咒 The.Librarian.The.Curse.of.the.Judas.Chalice.2008.1080p.BluRay.x264.DTS-FGT 9.64GB-5.png 图书馆员:圣杯的诅咒/图书治理员:圣杯的诅咒 The.Librarian.The.Curse.of.the.Judas.Chalice.2008.1080p.BluRay.x264.DTS-FGT 9.64GB-6.png 图书馆员:圣杯的诅咒/图书治理员:圣杯的诅咒 The.Librarian.The.Curse.of.the.Judas.Chalice.2008.1080p.BluRay.x264.DTS-FGT 9.64GB-7.png 图书馆员:圣杯的诅咒/图书治理员:圣杯的诅咒 The.Librarian.The.Curse.of.the.Judas.Chalice.2008.1080p.BluRay.x264.DTS-FGT 9.64GB-8.png






回复

使用道具 举报

懒得打字嘛,点击右侧快捷回复 【右侧内容,后台自定义】
您需要登录后才可以回帖 登录 | 立即加入

本版积分规则

Archiver| |网站地图

Copyright © 2024 Comsenz Inc. Powered by 蓝光电影网

本站内容由用户自主分享和转载自互联网,转载目的在于传递更多信息,并不代表本网赞同其观点和对其真实性负责。

如有侵权、违反国家法律政策行为,请联系我们,我们会第一时间及时清除和处理!

举报反馈邮箱:4k1080.com@gmail.com

快速回复 返回顶部 返回列表