找回密码

查看: 1080|回复: 0

[UHD.HEVC] 头脑特工队/大脑内外 Inside.Out.2015.2160p.BluRay.REMUX.HEVC.TrueHD.7.1.Atmos-FGT 36.75GB

[复制链接]
蓝光币
1848
发表于 2019-9-9 18:46:23 | 显示全部楼层 |阅读模式


◎译  名 脑筋奸细队 / 大脑内外 / 大脑周游记 / 脑筋高文战 / 脑筋总带动 / 玩转脑朋友(港) / 由内而外 / 脑中小小人 / 脑子急转弯(台)
◎片  名 Inside Out
◎年  代 2015
◎产  地 美国
◎类  别 笑剧 / 动画 / 冒险
◎语  言 英语
◎上映日期 2015-06-19(美国) / 2015-10-06(中国大陆)
◎IMDb评分  8.2/10 from 547847 users
◎IMDb链接  http://www.imdb.com/title/tt2096673
◎豆瓣评分 8.7/10 from 347407 users
◎豆瓣链接 https://movie.douban.com/subject/10533913/
◎片  长 95分钟
◎导  演 彼特·道格特 Pete Docter / 罗纳尔多·德尔·卡门 Ronaldo Del Carmen
◎编  剧 彼特·道格特 Pete Docter / 罗纳尔多·德尔·卡门 Ronaldo Del Carmen / Meg LeFauve / 乔什·库雷 Josh Cooley / 迈克尔·阿恩特 Michael Arndt / 西蒙·里奇 Simon Rich / 鲍勃·彼德森 Bob Peterson / 比尔·哈德尔 Bill Hader / 艾米·波勒 Amy Poehler
◎主  演 艾米·波勒 Amy Poehler
       菲利丝·史姑娘 Phyllis Smith
       理查德·坎德 Richard Kind
       比尔·哈德尔 Bill Hader
       刘易斯·布莱克 Lewis Black
       敏迪·卡灵 Mindy Kaling
       凯特林·迪亚斯 Kaitlyn Dias
       戴安·琳恩 Diane Lane
       凯尔·麦克拉克伦 Kyle MacLachlan
       波拉·庞德斯通 Paula Poundstone
       鲍比·莫伊尼汉 Bobby Moynihan
       保拉·佩尔 Paula Pell
       大卫·戈尔兹 Dave Goelz
       弗兰克·奥兹 Frank Oz
       乔什·库雷 Josh Cooley
       弗利 Flea
       约翰·拉岑贝格 John Ratzenberger
       卡洛斯·阿拉斯拉奇 Carlos Alazraqui
       皮特·萨加尔 Peter Sagal
       拉什达·琼斯 Rashida Jones
       罗里·艾伦 Lori Alan
       约翰·齐甘 John Cygan
       雪莉·琳恩 Sherry Lynn
       拉瑞恩·纽曼 Laraine Newman
       帕丽斯·冯·戴克 Paris Van Dyke

◎标  签 动画 | 长大 | 美国 | Pixar | 温情 | 笑剧 | Disney | 心理
◎简  介  
  心爱的小女孩莱莉(凯特林·迪亚斯 Kaitlyn Dias 配音)诞生在明尼苏达州一个普通的家庭中,从小她在怙恃的庇护下长大,脑海中保存着无数美好甜蜜的回忆。固然这些记忆还与几个莱莉不曾碰面的伙伴息息相关,他们就是人类的五种首要情感:乐乐(艾米·波勒 Amy Poehl er 配音)、忧忧(菲利丝·史姑娘 Phyllis Smith 配音)、怕怕(比尔·哈德尔 Bill Hader 配音)、厌厌(敏迪·卡灵 Mindy Kaling 配音)和怒怒(刘易斯·布莱克 Lewis Black 配音)。乐乐作为团队的带领,她协同其他伙伴努力于为小仆人营建更多美好的珍贵回忆。某天,莱莉伴同怙恃搬到了旧金山,龌龊逼仄的公寓、陌生的校园情况、逐步失落的友谊都让莱莉莫衷一是,她的负面情感逐步积累,心里美好的天下渐次崩塌。
  为了庇护这一切,乐乐只要行动起来……
◎获奖情况  
  第88届奥斯卡金像奖(2016)
  最好原创剧本(提名) 梅格·勒福夫 / 彼特·道格特 / 罗纳尔多·德尔·卡门 / 乔什·库雷
  最好动画长片 乔纳斯·里维拉 / 彼特·道格特
  第73届金球奖(2016)
  电影类 最好动画长片
  第69届英国电影学院奖(2016)
  电影奖 最好原创剧本(提名) 梅格·勒福夫 / 彼特·道格特 / 乔什·库雷
  电影奖 最好动画片 彼特·道格特
  第43届动画安妮奖(2016)
  最好动画长片
  最好导演 彼特·道格特
  最好编剧 梅格·勒福夫 / 彼特·道格特 / 乔什·库雷
  最好配音 菲利丝·史姑娘
  最好配音(提名) 艾米·波勒
  最好配乐
  最好剪辑
  最好分镜
  最好艺术指导
  最好动画脚色
  最好脚色设想
  最好动画结果(提名)
  第27届美国制片野生会奖(2016)
  最好动画片制片人奖
  第66届美国剪辑工会奖(2016)
  动画片最好剪辑
  第14届美国视觉结果协会奖(2016)
  最好动画电影视觉结果(提名)
  最好动画电影CG动画脚色
  最好动画电影CG布景(提名)
  最好动画电影模拟动画结果(提名)
  第81届纽约影评人协会奖(2015)
  最好动画片
  第87届美国国家批评协会奖(2015)
  最好动画片
  年度佳片
  第21届美国批评家挑选电影奖(2016)
  最好笑剧片(提名)
  最好动画片
  最好原创剧本(提名) 梅格·勒福夫 / 乔什·库雷
  第16届美国电影学会奖(2015)
  年度佳片
  第20届金卫星奖(2016)
  电影部分 最好动画片
  第19届好莱坞电影奖(2015)
  年度动画 彼特·道格特
  第14届华盛顿影评人协会奖(2015)
  最好原创剧本
  最好动画片
  第36届波士顿影评人协会奖(2015)
  最好动画片
  第28届芝加哥影评人协会奖(2015)
  最好动画片
  第19届美国在线影评人协会奖(2015)
  最好影片(提名)
  最好原创剧本(提名) 梅格·勒福夫 / 彼特·道格特 / 罗纳尔多·德尔·卡门 / 乔什·库雷
  最好动画片
  第17届美国青少年挑选奖(2015)
  Choice Movie: Hissy Fit(提名) 刘易斯·布莱克
  最好暑期电影(提名)
  最好暑期电影女演员(提名) 艾米·波勒
  第2届豆瓣电影年度榜单(2015)
  评分最高的动画片
  10月最受关注电影(提名)
  第6届豆瓣电影鑫像奖(2016)
  鑫豆单元 最好影片(外语)(提名)
  鑫豆单元 最好动画长片
  1. Video
  2. ID                                       : 1
  3. Format                                   : HEVC
  4. Format/Info                              : High Efficiency Video Coding
  5. Format profile                           : Main [email protected]@High
  6. HDR format                               : SMPTE ST 2086, HDR10 compatible
  7. Codec ID                                 : V_MPEGH/ISO/HEVC
  8. Duration                                 : 1 h 34 min
  9. Bit rate                                 : 42.9 Mb/s
  10. Width                                    : 3 840 pixels
  11. Height                                   : 2 160 pixels
  12. Display aspect ratio                     : 16:9
  13. Frame rate mode                          : Constant
  14. Frame rate                               : 23.976 (24000/1001) FPS
  15. Color space                              : YUV
  16. Chroma subsampling                       : 4:2:0 (Type 2)
  17. Bit depth                                : 10 bits
  18. Bits/(Pixel*Frame)                       : 0.216
  19. Stream size                              : 28.4 GiB (77%)
  20. Title                                    : Inside.Out.2015.2160p.BluRay.REMUX.HEVC.TrueHD.7.1.Atmos-FGT
  21. Writing library                          : ATEME Titan File 3.9.0 (4.9.0.0)        
  22. Language                                 : English
  23. Default                                  : No
  24. Forced                                   : No
  25. Color range                              : Limited
  26. Color primaries                          : BT.2020
  27. Transfer characteristics                 : PQ
  28. Matrix coefficients                      : BT.2020 non-constant
  29. Mastering display color primaries        : Display P3
  30. Mastering display luminance              : min: 0.0000 cd/m2, max: 1000 cd/m2
  31. Audio #1
  32. ID                                       : 2
  33. Format                                   : MLP FBA 16-ch
  34. Format/Info                              : Meridian Lossless Packing FBA with 16-channel presentation
  35. Commercial name                          : Dolby TrueHD with Dolby Atmos
  36. Codec ID                                 : A_TRUEHD
  37. Duration                                 : 1 h 34 min
  38. Bit rate mode                            : Variable
  39. Bit rate                                 : 6 422 kb/s
  40. Maximum bit rate                         : 8 226 kb/s
  41. Channel(s)                               : 8 channels
  42. Channel layout                           : L R C LFE Ls Rs Lb Rb
  43. Sampling rate                            : 48.0 kHz
  44. Frame rate                               : 1 200.000 FPS (40 SPF)
  45. Compression mode                         : Lossless
  46. Stream size                              : 4.25 GiB (12%)
  47. Title                                    : Inside.Out.2015.2160p.BluRay.REMUX.HEVC.TrueHD.7.1.Atmos-FGT
  48. Language                                 : English
  49. Default                                  : Yes
  50. Forced                                   : No
  51. Number of dynamic objects                : 13
  52. Bed channel count                        : 1 channel
  53. Bed channel configuration                : LFE
  54. Audio #2
  55. ID                                       : 3
  56. Format                                   : AC-3
  57. Format/Info                              : Audio Coding 3
  58. Commercial name                          : Dolby Digital
  59. Codec ID                                 : A_AC3
  60. Duration                                 : 1 h 34 min
  61. Bit rate mode                            : Constant
  62. Bit rate                                 : 640 kb/s
  63. Channel(s)                               : 6 channels
  64. Channel layout                           : L R C LFE Ls Rs
  65. Sampling rate                            : 48.0 kHz
  66. Frame rate                               : 31.250 FPS (1536 SPF)
  67. Bit depth                                : 16 bits
  68. Compression mode                         : Lossy
  69. Stream size                              : 433 MiB (1%)
  70. Title                                    : Inside.Out.2015.2160p.BluRay.REMUX.HEVC.TrueHD.7.1.Atmos-FGT
  71. Language                                 : English
  72. Service kind                             : Complete Main
  73. Default                                  : No
  74. Forced                                   : No
  75. Audio #3
  76. ID                                       : 4
  77. Format                                   : E-AC-3
  78. Format/Info                              : Enhanced AC-3
  79. Commercial name                          : Dolby Digital Plus
  80. Format profile                           : Blu-ray Disc
  81. Codec ID                                 : A_EAC3
  82. Duration                                 : 1 h 34 min
  83. Bit rate mode                            : Constant
  84. Bit rate                                 : 896 kb/s
  85. Channel(s)                               : 8 channels
  86. Channel layout                           : L R C LFE Ls Rs Lb Rb
  87. Sampling rate                            : 48.0 kHz
  88. Frame rate                               : 31.250 FPS (1536 SPF)
  89. Compression mode                         : Lossy
  90. Stream size                              : 607 MiB (2%)
  91. Title                                    : Inside.Out.2015.2160p.BluRay.REMUX.HEVC.TrueHD.7.1.Atmos-FGT
  92. Language                                 : English
  93. Service kind                             : Complete Main
  94. Default                                  : No
  95. Forced                                   : No
  96. Audio #4
  97. ID                                       : 5
  98. Format                                   : AC-3
  99. Format/Info                              : Audio Coding 3
  100. Commercial name                          : Dolby Digital
  101. Codec ID                                 : A_AC3
  102. Duration                                 : 1 h 34 min
  103. Bit rate mode                            : Constant
  104. Bit rate                                 : 512 kb/s
  105. Channel(s)                               : 6 channels
  106. Channel layout                           : L R C LFE Ls Rs
  107. Sampling rate                            : 48.0 kHz
  108. Frame rate                               : 31.250 FPS (1536 SPF)
  109. Bit depth                                : 16 bits
  110. Compression mode                         : Lossy
  111. Stream size                              : 347 MiB (1%)
  112. Title                                    : Inside.Out.2015.2160p.BluRay.REMUX.HEVC.TrueHD.7.1.Atmos-FGT
  113. Language                                 : English
  114. Service kind                             : Complete Main
  115. Default                                  : No
  116. Forced                                   : No
  117. Audio #5
  118. ID                                       : 6
  119. Format                                   : AC-3
  120. Format/Info                              : Audio Coding 3
  121. Commercial name                          : Dolby Digital
  122. Codec ID                                 : A_AC3
  123. Duration                                 : 1 h 34 min
  124. Bit rate mode                            : Constant
  125. Bit rate                                 : 640 kb/s
  126. Channel(s)                               : 6 channels
  127. Channel layout                           : L R C LFE Ls Rs
  128. Sampling rate                            : 48.0 kHz
  129. Frame rate                               : 31.250 FPS (1536 SPF)
  130. Bit depth                                : 16 bits
  131. Compression mode                         : Lossy
  132. Stream size                              : 433 MiB (1%)
  133. Title                                    : Inside.Out.2015.2160p.BluRay.REMUX.HEVC.TrueHD.7.1.Atmos-FGT
  134. Language                                 : English
  135. Service kind                             : Complete Main
  136. Default                                  : No
  137. Forced                                   : No
  138. Audio #6
  139. ID                                       : 7
  140. Format                                   : AC-3
  141. Format/Info                              : Audio Coding 3
  142. Commercial name                          : Dolby Digital
  143. Codec ID                                 : A_AC3
  144. Duration                                 : 1 h 34 min
  145. Bit rate mode                            : Constant
  146. Bit rate                                 : 320 kb/s
  147. Channel(s)                               : 2 channels
  148. Channel layout                           : L R
  149. Sampling rate                            : 48.0 kHz
  150. Frame rate                               : 31.250 FPS (1536 SPF)
  151. Bit depth                                : 16 bits
  152. Compression mode                         : Lossy
  153. Stream size                              : 217 MiB (1%)
  154. Title                                    : Inside.Out.2015.2160p.BluRay.REMUX.HEVC.TrueHD.7.1.Atmos-FGT
  155. Language                                 : English
  156. Service kind                             : Complete Main
  157. Default                                  : No
  158. Forced                                   : No
  159. Audio #7
  160. ID                                       : 8
  161. Format                                   : AC-3
  162. Format/Info                              : Audio Coding 3
  163. Commercial name                          : Dolby Digital
  164. Codec ID                                 : A_AC3
  165. Duration                                 : 1 h 34 min
  166. Bit rate mode                            : Constant
  167. Bit rate                                 : 320 kb/s
  168. Channel(s)                               : 2 channels
  169. Channel layout                           : L R
  170. Sampling rate                            : 48.0 kHz
  171. Frame rate                               : 31.250 FPS (1536 SPF)
  172. Bit depth                                : 16 bits
  173. Compression mode                         : Lossy
  174. Stream size                              : 217 MiB (1%)
  175. Title                                    : Inside.Out.2015.2160p.BluRay.REMUX.HEVC.TrueHD.7.1.Atmos-FGT
  176. Language                                 : English
  177. Service kind                             : Complete Main
  178. Default                                  : No
  179. Forced                                   : No
  180. Audio #8
  181. ID                                       : 9
  182. Format                                   : E-AC-3
  183. Format/Info                              : Enhanced AC-3
  184. Commercial name                          : Dolby Digital Plus
  185. Format profile                           : Blu-ray Disc
  186. Codec ID                                 : A_EAC3
  187. Duration                                 : 1 h 34 min
  188. Bit rate mode                            : Constant
  189. Bit rate                                 : 896 kb/s
  190. Channel(s)                               : 8 channels
  191. Channel layout                           : L R C LFE Ls Rs Lb Rb
  192. Sampling rate                            : 48.0 kHz
  193. Frame rate                               : 31.250 FPS (1536 SPF)
  194. Compression mode                         : Lossy
  195. Stream size                              : 607 MiB (2%)
  196. Title                                    : Inside.Out.2015.2160p.BluRay.REMUX.HEVC.TrueHD.7.1.Atmos-FGT
  197. Language                                 : French
  198. Service kind                             : Complete Main
  199. Default                                  : No
  200. Forced                                   : No
  201. Audio #9
  202. ID                                       : 10
  203. Format                                   : AC-3
  204. Format/Info                              : Audio Coding 3
  205. Commercial name                          : Dolby Digital
  206. Codec ID                                 : A_AC3
  207. Duration                                 : 1 h 34 min
  208. Bit rate mode                            : Constant
  209. Bit rate                                 : 512 kb/s
  210. Channel(s)                               : 6 channels
  211. Channel layout                           : L R C LFE Ls Rs
  212. Sampling rate                            : 48.0 kHz
  213. Frame rate                               : 31.250 FPS (1536 SPF)
  214. Bit depth                                : 16 bits
  215. Compression mode                         : Lossy
  216. Stream size                              : 347 MiB (1%)
  217. Title                                    : Inside.Out.2015.2160p.BluRay.REMUX.HEVC.TrueHD.7.1.Atmos-FGT
  218. Language                                 : French
  219. Service kind                             : Complete Main
  220. Default                                  : No
  221. Forced                                   : No
  222. Audio #10
  223. ID                                       : 11
  224. Format                                   : E-AC-3
  225. Format/Info                              : Enhanced AC-3
  226. Commercial name                          : Dolby Digital Plus
  227. Format profile                           : Blu-ray Disc
  228. Codec ID                                 : A_EAC3
  229. Duration                                 : 1 h 34 min
  230. Bit rate mode                            : Constant
  231. Bit rate                                 : 896 kb/s
  232. Channel(s)                               : 8 channels
  233. Channel layout                           : L R C LFE Ls Rs Lb Rb
  234. Sampling rate                            : 48.0 kHz
  235. Frame rate                               : 31.250 FPS (1536 SPF)
  236. Compression mode                         : Lossy
  237. Stream size                              : 607 MiB (2%)
  238. Title                                    : Inside.Out.2015.2160p.BluRay.REMUX.HEVC.TrueHD.7.1.Atmos-FGT
  239. Language                                 : Spanish
  240. Service kind                             : Complete Main
  241. Default                                  : No
  242. Forced                                   : No
  243. Audio #11
  244. ID                                       : 12
  245. Format                                   : AC-3
  246. Format/Info                              : Audio Coding 3
  247. Commercial name                          : Dolby Digital
  248. Codec ID                                 : A_AC3
  249. Duration                                 : 1 h 34 min
  250. Bit rate mode                            : Constant
  251. Bit rate                                 : 512 kb/s
  252. Channel(s)                               : 6 channels
  253. Channel layout                           : L R C LFE Ls Rs
  254. Sampling rate                            : 48.0 kHz
  255. Frame rate                               : 31.250 FPS (1536 SPF)
  256. Bit depth                                : 16 bits
  257. Compression mode                         : Lossy
  258. Stream size                              : 347 MiB (1%)
  259. Title                                    : Inside.Out.2015.2160p.BluRay.REMUX.HEVC.TrueHD.7.1.Atmos-FGT
  260. Language                                 : Spanish
  261. Service kind                             : Complete Main
  262. Default                                  : No
  263. Forced                                   : No
  264. Text #1
  265. ID                                       : 13
  266. Format                                   : UTF-8
  267. Codec ID                                 : S_TEXT/UTF8
  268. Codec ID/Info                            : UTF-8 Plain Text
  269. Duration                                 : 1 h 26 min
  270. Bit rate                                 : 76 b/s
  271. Count of elements                        : 1633
  272. Stream size                              : 48.8 KiB (0%)
  273. Title                                    : English-SRT
  274. Language                                 : English
  275. Default                                  : Yes
  276. Forced                                   : No
  277. Text #2
  278. ID                                       : 14
  279. Format                                   : PGS
  280. Muxing mode                              : zlib
  281. Codec ID                                 : S_HDMV/PGS
  282. Codec ID/Info                            : Picture based subtitle format used on BDs/HD-DVDs
  283. Duration                                 : 1 h 27 min
  284. Bit rate                                 : 57.1 kb/s
  285. Count of elements                        : 3690
  286. Stream size                              : 35.7 MiB (0%)
  287. Title                                    : English-PGS
  288. Language                                 : English
  289. Default                                  : No
  290. Forced                                   : No
  291. Text #3
  292. ID                                       : 15
  293. Format                                   : PGS
  294. Muxing mode                              : zlib
  295. Codec ID                                 : S_HDMV/PGS
  296. Codec ID/Info                            : Picture based subtitle format used on BDs/HD-DVDs
  297. Duration                                 : 1 h 26 min
  298. Bit rate                                 : 44.5 kb/s
  299. Count of elements                        : 2534
  300. Stream size                              : 27.7 MiB (0%)
  301. Title                                    : French-PGS
  302. Language                                 : French
  303. Default                                  : No
  304. Forced                                   : No
  305. Text #4
  306. ID                                       : 16
  307. Format                                   : PGS
  308. Muxing mode                              : zlib
  309. Codec ID                                 : S_HDMV/PGS
  310. Codec ID/Info                            : Picture based subtitle format used on BDs/HD-DVDs
  311. Duration                                 : 1 h 26 min
  312. Bit rate                                 : 45.6 kb/s
  313. Count of elements                        : 2496
  314. Stream size                              : 28.4 MiB (0%)
  315. Title                                    : Spanish-PGS
  316. Language                                 : Spanish
  317. Default                                  : No
  318. Forced                                   : No
  319. Menu
  320. 00:00:00.000                             : en:Chapter 01
  321. 00:07:22.692                             : en:Chapter 02
  322. 00:11:36.404                             : en:Chapter 03
  323. 00:15:46.153                             : en:Chapter 04
  324. 00:20:01.950                             : en:Chapter 05
  325. 00:25:21.061                             : en:Chapter 06
  326. 00:26:46.896                             : en:Chapter 07
  327. 00:30:10.183                             : en:Chapter 08
  328. 00:34:45.792                             : en:Chapter 09
  329. 00:36:02.285                             : en:Chapter 10
  330. 00:37:45.304                             : en:Chapter 11
  331. 00:41:26.984                             : en:Chapter 12
  332. 00:43:35.613                             : en:Chapter 13
  333. 00:45:19.258                             : en:Chapter 14
  334. 00:46:51.725                             : en:Chapter 15
  335. 00:50:02.332                             : en:Chapter 16
  336. 00:51:34.341                             : en:Chapter 17
  337. 00:56:11.868                             : en:Chapter 18
  338. 01:00:03.683                             : en:Chapter 19
  339. 01:01:17.507                             : en:Chapter 20
  340. 01:03:50.368                             : en:Chapter 21
  341. 01:06:27.191                             : en:Chapter 22
  342. 01:11:15.437                             : en:Chapter 23
  343. 01:13:40.541                             : en:Chapter 24
  344. 01:15:38.617                             : en:Chapter 25
  345. 01:19:59.961                             : en:Chapter 26
  346. 01:23:57.198                             : en:Chapter 27
  347. 01:26:18.214                             : en:Chapter 28
复制代码






                                       
                                       

                                       
                                       
                                       




回复

使用道具 举报

懒得打字嘛,点击右侧快捷回复 【右侧内容,后台自定义】
您需要登录后才可以回帖 登录 | 立即加入

本版积分规则

Copyright © 2024 Comsenz Inc. Powered by 蓝光电影网

本站内容由用户自主分享和转载自互联网,转载目的在于传递更多信息,并不代表本网赞同其观点和对其真实性负责。

如有侵权、违反国家法律政策行为,请联系我们,我们会第一时间及时清除和处理!

举报反馈邮箱:4k1080.com@gmail.com

快速回复 返回顶部 返回列表