找回密码

查看: 839|回复: 0

[2160p] 夏福特 Shaft.2019.INTERNAL.2160p.WEB.H265-DEFLATE 19.88GB

[复制链接]
蓝光币
1840
发表于 2019-9-10 16:50:19 | 显示全部楼层 |阅读模式


◎译  名 夏福特 / Shaft 2 / Son of Shaft / 夏福特之子 / 新杀戮战警(台) / 杀戮战警2 / 辣手刑警 2:委曲父子档(港) / 铁杆神探2
◎片  名 Shaft
◎年  代 2019
◎产  地 美国
◎类  别 笑剧 / 行动 / 犯罪
◎语  言 英语
◎上映日期 2019-06-14(美国)
◎IMDb评分  6.4/10 from 26729 users
◎IMDb链接  http://www.imdb.com/title/tt4463894
◎豆瓣评分 6.8/10 from 5224 users
◎豆瓣链接 https://movie.douban.com/subject/27116384/
◎片  长 111分钟
◎导  演 蒂姆·斯托瑞 Tim Story
◎编  剧 肯尼亚·巴里斯 Kenya Barris / 亚历克斯·巴诺 Alex Barnow / 欧内斯特·泰迪曼 Ernest Tidyman
◎主  演 塞缪尔·杰克逊 Samuel L. Jackson
       杰西·厄舍 Jessie Usher
       理查德·朗德特里 Richard Roundtree
       雷吉娜·赫尔 Regina Hall
       亚历山德拉·希普 Alexandra Shipp
       马特·劳里亚 Matt Lauria
       提图斯·维里沃 Titus Welliver
       马索·曼恩 Method Man
       伊萨赫·德·班克尔 Isaach De Bankolé
       阿万·乔贾 Avan Jogia
       劳伦·维勒斯 Lauren Vélez
       伊恩·卡塞尔伯里 Ian Casselberry
       西尔维娅·杰弗里斯 Sylvia Jefferies
       迈克·顿斯顿 Mike Dunston
       查尔斯·格林 Charles Green
       艾德丽安·C·摩尔 Adrienne C. Moore
       乔恩·亚瑟 Jon Arthur
       肖恩·贝克 Sean Baker
       蒂莫西·卡尔 Timothy Carr
       大卫·邓斯顿 David Dunston
       何塞·阿尔弗雷多·费尔南德斯 José Alfredo Fernandez
       安东尼·B·哈里斯 Anthony B. Harris
       德梅特里·兰德尔 Demetri Landell
       汉斯·马雷罗 Hans Marrero
       布赖希亚·马歇尔 Brayhia Marshall
       肖恩·麦克米伦 Shaun McMillan
       本杰明·韦弗 Benjamin Weaver

◎标  签 笑剧 | 行动 | 犯罪 | 美国 | 黑人 | 2019 | 黑色诙谐 | 华纳
◎简  介  
  杰西·厄舍加盟[杀戮战警]续作[夏福特之子](Son of Shaft,暂译),塞缪尔·杰克逊同时回归。本片由蒂姆·斯托瑞([佐州自救兄弟])执导,肯尼亚·巴里斯编剧。厄舍饰演杰克逊的儿子,他同时也是一位联邦观察局工作职员,更是收集专家。
  1. Video
  2. ID                                       : 1
  3. Format                                   : HEVC
  4. Format/Info                              : High Efficiency Video Coding
  5. Format profile                           : Main [email protected]@High
  6. Codec ID                                 : V_MPEGH/ISO/HEVC
  7. Duration                                 : 1 h 51 min
  8. Bit rate                                 : 24.4 Mb/s
  9. Width                                    : 3 840 pixels
  10. Height                                   : 1 608 pixels
  11. Original height                          : 2 160 pixels
  12. Display aspect ratio                     : 16:9
  13. Frame rate mode                          : Constant
  14. Frame rate                               : 23.976 (24000/1001) FPS
  15. Color space                              : YUV
  16. Chroma subsampling                       : 4:2:0 (Type 2)
  17. Bit depth                                : 10 bits
  18. Bits/(Pixel*Frame)                       : 0.165
  19. Stream size                              : 19.0 GiB (96%)
  20. Default                                  : Yes
  21. Forced                                   : No
  22. Color range                              : Limited
  23. Color primaries                          : BT.709
  24. Transfer characteristics                 : BT.709
  25. Matrix coefficients                      : BT.709
  26. Audio
  27. ID                                       : 2
  28. Format                                   : E-AC-3 JOC
  29. Format/Info                              : Enhanced AC-3 with Joint Object Coding
  30. Commercial name                          : Dolby Digital Plus with Dolby Atmos
  31. Codec ID                                 : A_EAC3
  32. Duration                                 : 1 h 51 min
  33. Bit rate mode                            : Constant
  34. Bit rate                                 : 448 kb/s
  35. Channel(s)                               : 6 channels
  36. Channel layout                           : L R C LFE Ls Rs
  37. Sampling rate                            : 48.0 kHz
  38. Frame rate                               : 31.250 FPS (1536 SPF)
  39. Compression mode                         : Lossy
  40. Delay relative to video                  : 1 s 84 ms
  41. Stream size                              : 357 MiB (2%)
  42. Language                                 : English
  43. Service kind                             : Complete Main
  44. Default                                  : Yes
  45. Forced                                   : No
  46. Complexity index                         : 16
  47. Number of dynamic objects                : 15
  48. Bed channel count                        : 1 channel
  49. Bed channel configuration                : LFE
  50. Text #1
  51. ID                                       : 3
  52. Format                                   : UTF-8
  53. Codec ID                                 : S_TEXT/UTF8
  54. Codec ID/Info                            : UTF-8 Plain Text
  55. Title                                    : English
  56. Language                                 : English
  57. Default                                  : No
  58. Forced                                   : No
  59. Text #2
  60. ID                                       : 4
  61. Format                                   : UTF-8
  62. Codec ID                                 : S_TEXT/UTF8
  63. Codec ID/Info                            : UTF-8 Plain Text
  64. Title                                    : English (SDH)
  65. Language                                 : English
  66. Default                                  : No
  67. Forced                                   : No
  68. Menu
  69. 00:00:00.000                             : en:Chapter 1
  70. 00:08:03.000                             : en:Chapter 2
  71. 00:17:38.000                             : en:Chapter 3
  72. 00:27:56.000                             : en:Chapter 4
  73. 00:35:34.000                             : en:Chapter 5
  74. 00:41:22.000                             : en:Chapter 6
  75. 00:49:59.000                             : en:Chapter 7
  76. 00:59:05.000                             : en:Chapter 8
  77. 01:08:16.000                             : en:Chapter 9
  78. 01:17:30.000                             : en:Chapter 10
  79. 01:23:12.000                             : en:Chapter 11
  80. 01:33:29.000                             : en:Chapter 12
  81. 01:43:14.000                             : en:Chapter 13
  82. 01:46:54.000                             : en:Chapter 14
复制代码






                                       
                                       

                                       
                                       
                                       




回复

使用道具 举报

懒得打字嘛,点击右侧快捷回复 【右侧内容,后台自定义】
您需要登录后才可以回帖 登录 | 立即加入

本版积分规则

Copyright © 2024 Comsenz Inc. Powered by 蓝光电影网

本站内容由用户自主分享和转载自互联网,转载目的在于传递更多信息,并不代表本网赞同其观点和对其真实性负责。

如有侵权、违反国家法律政策行为,请联系我们,我们会第一时间及时清除和处理!

举报反馈邮箱:4k1080.com@gmail.com

快速回复 返回顶部 返回列表