找回密码

查看: 1202|回复: 0

[UHD.HEVC] 神奇女侠:血脉 Wonder.Woman.Bloodlines.2019.2160p.BluRay.REMUX.HEVC.DTS-HD.MA.5.1-FGT 30.84GB

[复制链接]
蓝光币
1848
发表于 2019-10-12 02:29:14 | 显示全部楼层 |阅读模式


◎译  名 奇异女侠:血脉
◎片  名 Wonder Woman: Bloodlines
◎年  代 2019
◎产  地 美国
◎类  别 动画 / 奇异
◎语  言 英语
◎上映日期 2019-10-05(美国)
◎IMDb评分  4.6/10 from 7 users
◎IMDb链接  http://www.imdb.com/title/tt8752498
◎豆瓣评分 0/10 from 0 users
◎豆瓣链接 https://movie.douban.com/subject/30286098/
◎片  长 83分钟
◎导  演 贾斯汀·科普兰 Justin Copeland / 刘山姆 Sam Liu
◎编  剧 威廉·马斯顿 William M. Marston / 麦格里德·斯科特 Mairghread Scott
◎主  演 罗莎里奥·道森 Rosario Dawson
       玛莉·艾格洛蒲露丝 Marie Avgeropoulos
       艾德丽安·C·摩尔 Adrienne C. Moore
       杰弗里·多诺万 Jeffrey Donovan
       克里·萨莫 Cree Summer
       迈克尔·多恩 Michael Dorn
       康斯坦斯·齐默 Constance Zimmer
       莫赞·玛诺 Mozhan Marnò
       妮娅·瓦达拉斯 Nia Vardalos
       柯特奈·泰勒 Courtenay Taylor
       雷·蔡斯 Ray Chase
       Kimberly Brooks

◎标  签 DC | 动画 | 奇异女侠 | 2019 | 美国 | DC动漫 | 漫改 | DCAMU
◎简  介  
  该部电影是2009年以来的第二部“奇异女侠”动画电影,电影首要报告奇异女侠奇异女侠要从致命犯罪的构造帮助一位深陷麻烦的女孩,而这个构造的方针是入侵奇异女侠的故乡天堂岛。
  罗莎里奥·道森将继续为奇异女侠配音,本片将有银天鹅、豹女、毒药博士和巨化女等奇异女侠典范反派退场。
  1. Video
  2. ID                                       : 1
  3. Format                                   : HEVC
  4. Format/Info                              : High Efficiency Video Coding
  5. Format profile                           : Main [email protected]@High
  6. HDR format                               : SMPTE ST 2086, HDR10 compatible
  7. Codec ID                                 : V_MPEGH/ISO/HEVC
  8. Duration                                 : 1 h 22 min
  9. Bit rate                                 : 49.6 Mb/s
  10. Width                                    : 3 840 pixels
  11. Height                                   : 2 160 pixels
  12. Display aspect ratio                     : 16:9
  13. Frame rate mode                          : Constant
  14. Frame rate                               : 23.976 (24000/1001) FPS
  15. Color space                              : YUV
  16. Chroma subsampling                       : 4:2:0 (Type 2)
  17. Bit depth                                : 10 bits
  18. Bits/(Pixel*Frame)                       : 0.250
  19. Stream size                              : 28.7 GiB (93%)
  20. Title                                    : Wonder.Woman.Bloodlines.2019.2160p.BluRay.REMUX.HEVC.DTS-HD.MA.5.1-FGT
  21. Writing library                          : ATEME Titan File 3.9.0 (4.9.0.0)        
  22. Language                                 : English
  23. Default                                  : No
  24. Forced                                   : No
  25. Color range                              : Limited
  26. Color primaries                          : BT.2020
  27. Transfer characteristics                 : PQ
  28. Matrix coefficients                      : BT.2020 non-constant
  29. Mastering display color primaries        : Display P3
  30. Mastering display luminance              : min: 0.0050 cd/m2, max: 4000 cd/m2
  31. Maximum Content Light Level              : 659 cd/m2
  32. Maximum Frame-Average Light Level        : 203 cd/m2
  33. Audio #1
  34. ID                                       : 2
  35. Format                                   : DTS XLL
  36. Format/Info                              : Digital Theater Systems
  37. Commercial name                          : DTS-HD Master Audio
  38. Codec ID                                 : A_DTS
  39. Duration                                 : 1 h 22 min
  40. Bit rate mode                            : Variable
  41. Bit rate                                 : 2 329 kb/s
  42. Channel(s)                               : 6 channels
  43. Channel layout                           : C L R Ls Rs LFE
  44. Sampling rate                            : 48.0 kHz
  45. Frame rate                               : 93.750 FPS (512 SPF)
  46. Bit depth                                : 24 bits
  47. Compression mode                         : Lossless
  48. Stream size                              : 1.35 GiB (4%)
  49. Title                                    : Wonder.Woman.Bloodlines.2019.2160p.BluRay.REMUX.HEVC.DTS-HD.MA.5.1-FGT
  50. Language                                 : English
  51. Default                                  : Yes
  52. Forced                                   : No
  53. Audio #2
  54. ID                                       : 3
  55. Format                                   : AC-3
  56. Format/Info                              : Audio Coding 3
  57. Commercial name                          : Dolby Digital
  58. Codec ID                                 : A_AC3
  59. Duration                                 : 1 h 22 min
  60. Bit rate mode                            : Constant
  61. Bit rate                                 : 640 kb/s
  62. Channel(s)                               : 6 channels
  63. Channel layout                           : L R C LFE Ls Rs
  64. Sampling rate                            : 48.0 kHz
  65. Frame rate                               : 31.250 FPS (1536 SPF)
  66. Bit depth                                : 16 bits
  67. Compression mode                         : Lossy
  68. Stream size                              : 379 MiB (1%)
  69. Title                                    : Wonder.Woman.Bloodlines.2019.2160p.BluRay.REMUX.HEVC.DTS-HD.MA.5.1-FGT
  70. Language                                 : French
  71. Service kind                             : Complete Main
  72. Default                                  : No
  73. Forced                                   : No
  74. Audio #3
  75. ID                                       : 4
  76. Format                                   : AC-3
  77. Format/Info                              : Audio Coding 3
  78. Commercial name                          : Dolby Digital
  79. Codec ID                                 : A_AC3
  80. Duration                                 : 1 h 22 min
  81. Bit rate mode                            : Constant
  82. Bit rate                                 : 640 kb/s
  83. Channel(s)                               : 6 channels
  84. Channel layout                           : L R C LFE Ls Rs
  85. Sampling rate                            : 48.0 kHz
  86. Frame rate                               : 31.250 FPS (1536 SPF)
  87. Bit depth                                : 16 bits
  88. Compression mode                         : Lossy
  89. Stream size                              : 379 MiB (1%)
  90. Title                                    : Wonder.Woman.Bloodlines.2019.2160p.BluRay.REMUX.HEVC.DTS-HD.MA.5.1-FGT
  91. Language                                 : Spanish
  92. Service kind                             : Complete Main
  93. Default                                  : No
  94. Forced                                   : No
  95. Text #1
  96. ID                                       : 5
  97. Format                                   : UTF-8
  98. Codec ID                                 : S_TEXT/UTF8
  99. Codec ID/Info                            : UTF-8 Plain Text
  100. Duration                                 : 1 h 19 min
  101. Bit rate                                 : 46 b/s
  102. Count of elements                        : 958
  103. Stream size                              : 27.2 KiB (0%)
  104. Title                                    : English-SRT
  105. Language                                 : English
  106. Default                                  : Yes
  107. Forced                                   : No
  108. Text #2
  109. ID                                       : 6
  110. Format                                   : PGS
  111. Muxing mode                              : zlib
  112. Codec ID                                 : S_HDMV/PGS
  113. Codec ID/Info                            : Picture based subtitle format used on BDs/HD-DVDs
  114. Duration                                 : 1 h 19 min
  115. Bit rate                                 : 31.1 kb/s
  116. Count of elements                        : 2326
  117. Stream size                              : 17.8 MiB (0%)
  118. Title                                    : English-PGS
  119. Language                                 : English
  120. Default                                  : No
  121. Forced                                   : No
  122. Text #3
  123. ID                                       : 7
  124. Format                                   : PGS
  125. Muxing mode                              : zlib
  126. Codec ID                                 : S_HDMV/PGS
  127. Codec ID/Info                            : Picture based subtitle format used on BDs/HD-DVDs
  128. Duration                                 : 1 h 21 min
  129. Bit rate                                 : 26.5 kb/s
  130. Count of elements                        : 1944
  131. Stream size                              : 15.5 MiB (0%)
  132. Title                                    : French-PGS
  133. Language                                 : French
  134. Default                                  : No
  135. Forced                                   : No
  136. Text #4
  137. ID                                       : 8
  138. Format                                   : PGS
  139. Muxing mode                              : zlib
  140. Codec ID                                 : S_HDMV/PGS
  141. Codec ID/Info                            : Picture based subtitle format used on BDs/HD-DVDs
  142. Duration                                 : 1 h 21 min
  143. Bit rate                                 : 26.7 kb/s
  144. Count of elements                        : 1948
  145. Stream size                              : 15.6 MiB (0%)
  146. Title                                    : Spanish-PGS
  147. Language                                 : Spanish
  148. Default                                  : No
  149. Forced                                   : No
  150. Menu
  151. 00:00:00.000                             : en:Chapter 01
  152. 00:10:04.395                             : en:Chapter 02
  153. 00:19:53.483                             : en:Chapter 03
  154. 00:28:26.538                             : en:Chapter 04
  155. 00:38:44.030                             : en:Chapter 05
  156. 00:47:37.229                             : en:Chapter 06
  157. 00:54:35.313                             : en:Chapter 07
  158. 01:03:47.782                             : en:Chapter 08
  159. 01:12:13.287                             : en:Chapter 09
  160. 01:17:54.836                             : en:Chapter 10
复制代码






                                       
                                       

                                       
                                       
                                       




回复

使用道具 举报

懒得打字嘛,点击右侧快捷回复 【右侧内容,后台自定义】
您需要登录后才可以回帖 登录 | 立即加入

本版积分规则

Copyright © 2024 Comsenz Inc. Powered by 蓝光电影网

本站内容由用户自主分享和转载自互联网,转载目的在于传递更多信息,并不代表本网赞同其观点和对其真实性负责。

如有侵权、违反国家法律政策行为,请联系我们,我们会第一时间及时清除和处理!

举报反馈邮箱:4k1080.com@gmail.com

快速回复 返回顶部 返回列表