找回密码

蓝光电影网

查看: 57|回复: 0

[2160p] 比尔和泰德历险记/比尔和泰德的奇异冒险 Bill.and.Teds.Excellent.Adventure.1989.2160p.UHD.BluRay.x265.10bit.HDR.DTS-HD.MA.5.1-SWTYBLZ 33.53GB

[复制链接]
蓝光币
1080
发表于 2020-8-10 08:48:26 | 显示全部楼层 |阅读模式


◎译  名 比尔和泰德历险记 / 比尔和泰德的奇异冒险 / 超时空历险记 / 阿比阿弟的冒险 / 阿比阿弟闯天关(台)
◎片  名 Bill & Ted's Excellent Adventure
◎年  代 1989
◎产  地 美国
◎类  别 笑剧 / 科幻 / 家庭 / 冒险
◎语  言 英语 / 法语 / 德语
◎上映日期 1989-02-17(美国)
◎IMDb评分  6.9/10 from 108520 users
◎IMDb链接  https://www.imdb.com/title/tt0096928
◎豆瓣评分 6.9/10 from 1458 users
◎豆瓣链接 https://movie.douban.com/subject/1293895/
◎片  长 90分钟
◎导  演 斯蒂芬·赫瑞克 Stephen Herek
◎编  剧 Chris Matheson / 爱德·索罗门 Ed Solomon
◎主  演 斯蒂芬·赫瑞克 Stephen Herek
       爱德·索罗门 Ed Solomon
       基努·李维斯 Keanu Reeves
       亚历克斯·温特 Alex Winter
       乔治·卡林 George Carlin
       丹·肖尔 Dan Shor
       Rod Loomis
       Al Leong
       Jane Wiedlin
       Robert V. Barron
       Clifford David
       Hal Landon Jr.
       Bernie Casey
       Amy Stock-Poynton

◎标  签 笑剧 | 科幻 | 美国 | 青春 | KeanuReeves | 1989 | 美国电影 | 穿越
◎简  介

  
  泰德(基努·里维斯 Keanu Reeves 饰)和比尔(亚历克斯·温特 Alex Winter 饰)是就读于同一所高中的同学,两人之间豪情非常要好。也许,他们会如此一见仍旧的缘由在于,两人的智商处在同一水平线上,没错,就是那条比他人都低的水平线。更糟糕的是,比尔和泰德在一路只晓得全日游手好闲,丝绝不将心机放在进修上,成便不可思议。
  历史考试在即,就在这个节骨眼上,泰德和比尔得知了一个惊天凶讯,假如不能经过此次考试,他们就将没法拿到结业证书,一会儿懵了的两人堕入了手足无措当中。就在此时,一位名叫鲁佛斯(乔治·卡林 George Carlin 饰)的天外来客出现在了他们眼前,他自称来自未来天下。不管鲁佛斯所言是真是假,泰德和比尔大白,他是他们那道结业证书的唯逐一根拯救稻草。
  1. Video
  2. ID                                       : 1
  3. Format                                   : HEVC
  4. Format/Info                              : High Efficiency Video Coding
  5. Format profile                           : Main [email protected]@High
  6. HDR format                               : SMPTE ST 2086, HDR10 compatible
  7. Codec ID                                 : V_MPEGH/ISO/HEVC
  8. Duration                                 : 1 h 29 min
  9. Bit rate                                 : 48.4 Mb/s
  10. Width                                    : 3 840 pixels
  11. Height                                   : 1 634 pixels
  12. Display aspect ratio                     : 2.35:1
  13. Frame rate mode                          : Constant
  14. Frame rate                               : 24.000 FPS
  15. Color space                              : YUV
  16. Chroma subsampling                       : 4:2:0 (Type 2)
  17. Bit depth                                : 10 bits
  18. Bits/(Pixel*Frame)                       : 0.322
  19. Stream size                              : 30.4 GiB (91%)
  20. Title                                    : Bill.and.Teds.Excellent.Adventure.1989.2160p.UHD.BluRay.x265.10bit.HDR.DTS-HD.MA.5.1-SWTYBLZ
  21. Writing library                          : x265 3.47b120308dc64:[Windows][MSVC 1900][64 bit] 10bit
  22. Encoding settings                        : cpuid=1176575 / frame-threads=5 / numa-pools=36 / wpp / no-pmode / no-pme / no-psnr / no-ssim / log-level=2 / input-csp=1 / input-res=3840x1634 / interlace=0 / total-frames=129356 / level-idc=51 / high-tier=1 / uhd-bd=0 / ref=4 / no-allow-non-conformance / repeat-headers / annexb / aud / hrd / info / hash=0 / no-temporal-layers / no-open-gop / min-keyint=24 / keyint=250 / gop-lookahead=0 / bframes=4 / b-adapt=2 / b-pyramid / bframe-bias=0 / rc-lookahead=25 / lookahead-slices=4 / scenecut=40 / hist-scenecut=0 / radl=0 / no-splice / no-intra-refresh / ctu=64 / min-cu-size=8 / rect / no-amp / max-tu-size=32 / tu-inter-depth=1 / tu-intra-depth=1 / limit-tu=0 / rdoq-level=2 / dynamic-rd=0.00 / no-ssim-rd / signhide / no-tskip / nr-intra=0 / nr-inter=0 / no-constrained-intra / no-strong-intra-smoothing / max-merge=3 / limit-refs=3 / limit-modes / me=3 / subme=3 / merange=57 / temporal-mvp / no-frame-dup / no-hme / weightp / no-weightb / no-analyze-src-pics / deblock=-3:-3 / no-sao / no-sao-non-deblock / rd=4 / selective-sao=0 / no-early-skip / rskip / no-fast-intra / no-tskip-fast / no-cu-lossless / no-b-intra / no-splitrd-skip / rdpenalty=0 / psy-rd=2.00 / psy-rdoq=1.00 / no-rd-refine / no-lossless / cbqpoffs=0 / crqpoffs=0 / rc=crf / crf=17.0 / qcomp=0.60 / qpstep=4 / stats-write=0 / stats-read=0 / vbv-maxrate=160000 / vbv-bufsize=160000 / vbv-init=0.9 / crf-max=0.0 / crf-min=0.0 / ipratio=1.40 / pbratio=1.30 / aq-mode=2 / aq-strength=0.70 / cutree / zone-count=0 / no-strict-cbr / qg-size=32 / no-rc-grain / qpmax=69 / qpmin=0 / no-const-vbv / sar=1 / overscan=0 / videoformat=5 / range=0 / colorprim=9 / transfer=16 / colormatrix=9 / chromaloc=1 / chromaloc-top=2 / chromaloc-bottom=2 / display-window=0 / master-display=G(8500,39850)B(6550,2300)R(35400,14600)WP(15635,16450)L(10000000,1) / cll=0,0 / min-luma=0 / max-luma=1023 / log2-max-poc-lsb=8 / vui-timing-info / vui-hrd-info / slices=1 / no-opt-qp-pps / no-opt-ref-list-length-pps / no-multi-pass-opt-rps / scenecut-bias=0.05 / hist-threshold=0.01 / no-opt-cu-delta-qp / no-aq-motion / hdr10 / hdr10-opt / no-dhdr10-opt / no-idr-recovery-sei / analysis-reuse-level=0 / analysis-save-reuse-level=0 / analysis-load-reuse-level=0 / scale-factor=0 / refine-intra=0 / refine-inter=0 / refine-mv=1 / refine-ctu-distortion=0 / no-limit-sao / ctu-info=0 / no-lowpass-dct / refine-analysis-type=0 / copy-pic=1 / max-ausize-factor=1.0 / no-dynamic-refine / no-single-sei / no-hevc-aq / no-svt / no-field / qp-adaptation-range=1.00 / no-scenecut-aware-qpconformance-window-offsets / right=0 / bottom=0 / decoder-max-rate=0
  23. Language                                 : English
  24. Default                                  : Yes
  25. Forced                                   : No
  26. Color range                              : Limited
  27. Color primaries                          : BT.2020
  28. Transfer characteristics                 : PQ
  29. Matrix coefficients                      : BT.2020 non-constant
  30. Mastering display color primaries        : BT.2020
  31. Mastering display luminance              : min: 0.0001 cd/m2, max: 1000 cd/m2

  32. Audio #1
  33. ID                                       : 2
  34. Format                                   : DTS XLL
  35. Format/Info                              : Digital Theater Systems
  36. Commercial name                          : DTS-HD Master Audio
  37. Codec ID                                 : A_DTS
  38. Duration                                 : 1 h 29 min
  39. Bit rate mode                            : Variable
  40. Bit rate                                 : 3 896 kb/s
  41. Channel(s)                               : 6 channels
  42. Channel layout                           : C L R Ls Rs LFE
  43. Sampling rate                            : 48.0 kHz
  44. Frame rate                               : 93.750 FPS (512 SPF)
  45. Bit depth                                : 24 bits
  46. Compression mode                         : Lossless
  47. Stream size                              : 2.45 GiB (7%)
  48. Title                                    : Bill.and.Teds.Excellent.Adventure.1989.2160p.UHD.BluRay.x265.10bit.HDR.DTS-HD.MA.5.1-SWTYBLZ
  49. Language                                 : English
  50. Default                                  : Yes
  51. Forced                                   : No

  52. Audio #2
  53. ID                                       : 3
  54. Format                                   : AC-3
  55. Format/Info                              : Audio Coding 3
  56. Commercial name                          : Dolby Digital
  57. Codec ID                                 : A_AC3
  58. Duration                                 : 1 h 29 min
  59. Bit rate mode                            : Constant
  60. Bit rate                                 : 640 kb/s
  61. Channel(s)                               : 6 channels
  62. Channel layout                           : L R C LFE Ls Rs
  63. Sampling rate                            : 48.0 kHz
  64. Frame rate                               : 31.250 FPS (1536 SPF)
  65. Compression mode                         : Lossy
  66. Stream size                              : 412 MiB (1%)
  67. Title                                    : Bill.and.Teds.Excellent.Adventure.1989.2160p.UHD.BluRay.x265.10bit.HDR.DTS-HD.MA.5.1-SWTYBLZ
  68. Language                                 : English
  69. Service kind                             : Complete Main
  70. Default                                  : No
  71. Forced                                   : No

  72. Text #1
  73. ID                                       : 4
  74. Format                                   : UTF-8
  75. Codec ID                                 : S_TEXT/UTF8
  76. Codec ID/Info                            : UTF-8 Plain Text
  77. Duration                                 : 32 min 46 s
  78. Bit rate                                 : 1 b/s
  79. Count of elements                        : 18
  80. Stream size                              : 486 Bytes (0%)
  81. Title                                    : English-FORCED-SRT
  82. Language                                 : English
  83. Default                                  : Yes
  84. Forced                                   : Yes

  85. Text #2
  86. ID                                       : 5
  87. Format                                   : UTF-8
  88. Codec ID                                 : S_TEXT/UTF8
  89. Codec ID/Info                            : UTF-8 Plain Text
  90. Duration                                 : 1 h 23 min
  91. Bit rate                                 : 47 b/s
  92. Count of elements                        : 981
  93. Stream size                              : 29.3 KiB (0%)
  94. Title                                    : English-SRT
  95. Language                                 : English
  96. Default                                  : No
  97. Forced                                   : No

  98. Text #3
  99. ID                                       : 6
  100. Format                                   : UTF-8
  101. Codec ID                                 : S_TEXT/UTF8
  102. Codec ID/Info                            : UTF-8 Plain Text
  103. Duration                                 : 1 h 25 min
  104. Bit rate                                 : 52 b/s
  105. Count of elements                        : 1159
  106. Stream size                              : 33.0 KiB (0%)
  107. Title                                    : English-SDH-SRT
  108. Language                                 : English
  109. Default                                  : No
  110. Forced                                   : No

  111. Text #4
  112. ID                                       : 7
  113. Format                                   : PGS
  114. Muxing mode                              : zlib
  115. Codec ID                                 : S_HDMV/PGS
  116. Codec ID/Info                            : Picture based subtitle format used on BDs/HD-DVDs
  117. Duration                                 : 32 min 46 s
  118. Bit rate                                 : 1 745 b/s
  119. Count of elements                        : 27
  120. Stream size                              : 419 KiB (0%)
  121. Title                                    : English-FORCED-PGS
  122. Language                                 : English
  123. Default                                  : No
  124. Forced                                   : No

  125. Text #5
  126. ID                                       : 8
  127. Format                                   : PGS
  128. Muxing mode                              : zlib
  129. Codec ID                                 : S_HDMV/PGS
  130. Codec ID/Info                            : Picture based subtitle format used on BDs/HD-DVDs
  131. Duration                                 : 1 h 25 min
  132. Bit rate                                 : 33.8 kb/s
  133. Count of elements                        : 2309
  134. Stream size                              : 20.7 MiB (0%)
  135. Title                                    : English-PGS
  136. Language                                 : English
  137. Default                                  : No
  138. Forced                                   : No

  139. Text #6
  140. ID                                       : 9
  141. Format                                   : PGS
  142. Muxing mode                              : zlib
  143. Codec ID                                 : S_HDMV/PGS
  144. Codec ID/Info                            : Picture based subtitle format used on BDs/HD-DVDs
  145. Duration                                 : 1 h 28 min
  146. Bit rate                                 : 26.3 kb/s
  147. Count of elements                        : 1803
  148. Stream size                              : 16.7 MiB (0%)
  149. Title                                    : French-PGS
  150. Language                                 : French
  151. Default                                  : No
  152. Forced                                   : No

  153. Text #7
  154. ID                                       : 10
  155. Format                                   : PGS
  156. Muxing mode                              : zlib
  157. Codec ID                                 : S_HDMV/PGS
  158. Codec ID/Info                            : Picture based subtitle format used on BDs/HD-DVDs
  159. Duration                                 : 1 h 25 min
  160. Bit rate                                 : 26.4 kb/s
  161. Count of elements                        : 1558
  162. Stream size                              : 16.1 MiB (0%)
  163. Title                                    : German-PGS
  164. Language                                 : German
  165. Default                                  : No
  166. Forced                                   : No

  167. Menu
  168. 00:00:00.000                             : en:Chapter 01
  169. 00:04:54.208                             : en:Chapter 02
  170. 00:09:44.917                             : en:Chapter 03
  171. 00:16:42.208                             : en:Chapter 04
  172. 00:23:50.917                             : en:Chapter 05
  173. 00:30:54.542                             : en:Chapter 06
  174. 00:41:31.667                             : en:Chapter 07
  175. 00:52:25.583                             : en:Chapter 08
  176. 00:59:11.333                             : en:Chapter 09
  177. 01:07:25.417                             : en:Chapter 10
  178. 01:13:40.167                             : en:Chapter 11
  179. 01:21:26.500                             : en:Chapter 12
复制代码



                                       
                                       

                                       
                                       
                                       




比尔和泰德历险记/比尔和泰德的奇异冒险 Bill.and.Teds.Excellent.Adventure.1989.2160p.UHD.BluRay.x265.10bit.HDR.DTS-HD.MA.5.1-SWTYBLZ 33.53GB

Bill.and.Teds.Excellent.Adventure.1989.2160p.UHD.BluRay.x265.10bit.HDR.DTS-HD.MA.zip

85.42 KB, 下载次数: 0, 下载积分: 蓝光币 -2

回复

使用道具 举报

懒得打字嘛,点击右侧快捷回复 【右侧内容,后台自定义】
您需要登录后才可以回帖 登录 | 立即加入

本版积分规则

Archiver|小黑屋| 蓝光电影网 |网站地图

Copyright © 2021 Comsenz Inc. Powered by 蓝光电影网

蓝光电影网

本站内容由用户自主分享和转载自互联网,转载目的在于传递更多信息,并不代表本网赞同其观点和对其真实性负责。

如有侵权、违反国家法律政策行为,请联系我们,我们会第一时间及时清除和处理!

举报反馈邮箱:[email protected]

快速回复 返回顶部 返回列表