找回密码

蓝光电影网

查看: 79|回复: 0

[2160p] 收税人 The.Tax.Collector.2020.2160p.WEB.H265-HUZZAH 10.24GB

[复制链接]
蓝光币
1084
发表于 2020-8-8 08:59:52 | 显示全部楼层 |阅读模式


◎译  名 收税人 / Tax Collector / 收账人
◎片  名 The Tax Collector
◎年  代 2020
◎产  地 美国
◎类  别 剧情 / 惊悚 / 犯罪
◎语  言 英语
◎上映日期 2020-08-07(美国)
◎IMDb链接  https://www.imdb.com/title/tt8461224
◎豆瓣评分 0/10 from 0 users
◎豆瓣链接 https://movie.douban.com/subject/30254296/
◎导  演 大卫·阿耶 David Ayer
◎编  剧 大卫·阿耶 David Ayer
◎主  演 希亚·拉博夫 Shia LaBeouf
       拉娜·帕瑞娅 Lana Parrilla
       辛西娅·卡蒙娜 Cinthya Carmona
       艾尔皮迪娅·卡里洛 Elpidia Carrillo
       乔治·洛佩兹 George Lopez
       切尔茜·兰顿 Chelsea Rendon
       诺埃米·冈萨雷斯 Noemi Gonzalez
       布兰登·舒博 Brendan Schaub
       雷内?莫兰 Rene Moran
       胡安·卡洛斯·坎图 Juan Carlos Cantu
       鲍比·索托 Bobby Soto
       兰迪·冈萨雷斯 Randy Gonzalez
       Michelle Jubilee Gonzalez
       Jay Reeves
       Gabriela Flores
       Nayeli Esparza
       Lee Coc
       Valentina Latyna Plascencia
       Quinn Early

◎标  签 黑帮 | 犯罪 | 希亚·拉博夫 | 美国 | 大卫·阿耶 | 2020 | 美国电影 | 剧情
◎简  介

  
  Shia LaBeouf将与David Ayer再度合作《收税人》。
  电影报告男配角大卫·奎瓦斯(David Cuevas),他是一个垂青家庭的汉子,但工作却是为洛城黑帮高层收税的收账人。他与同伴Creeper穿越于城市之间收账,用各类方式逼人们掏钱,而欠账的则会遭到残暴的报复。但是,一位昔日仇敌的归来让奎瓦斯所爱的一切都堕入危险当中。
  1. Video
  2. ID                                       : 1
  3. Format                                   : HEVC
  4. Format/Info                              : High Efficiency Video Coding
  5. Format profile                           : [email protected]@Main
  6. Codec ID                                 : V_MPEGH/ISO/HEVC
  7. Duration                                 : 1 h 35 min
  8. Bit rate                                 : 14.9 Mb/s
  9. Width                                    : 3 840 pixels
  10. Height                                   : 2 160 pixels
  11. Display aspect ratio                     : 16:9
  12. Frame rate mode                          : Constant
  13. Frame rate                               : 24.000 FPS
  14. Color space                              : YUV
  15. Chroma subsampling                       : 4:2:0
  16. Bit depth                                : 8 bits
  17. Bits/(Pixel*Frame)                       : 0.075
  18. Stream size                              : 9.95 GiB (98%)
  19. Default                                  : Yes
  20. Forced                                   : No
  21. Color range                              : Limited
  22. Color primaries                          : BT.709
  23. Transfer characteristics                 : BT.709
  24. Matrix coefficients                      : BT.709
  25. Audio
  26. ID                                       : 2
  27. Format                                   : E-AC-3
  28. Format/Info                              : Enhanced AC-3
  29. Commercial name                          : Dolby Digital Plus
  30. Codec ID                                 : A_EAC3
  31. Duration                                 : 1 h 35 min
  32. Bit rate mode                            : Constant
  33. Bit rate                                 : 256 kb/s
  34. Channel(s)                               : 6 channels
  35. Channel layout                           : L R C LFE Ls Rs
  36. Sampling rate                            : 48.0 kHz
  37. Frame rate                               : 31.250 FPS (1536 SPF)
  38. Compression mode                         : Lossy
  39. Stream size                              : 175 MiB (2%)
  40. Language                                 : English
  41. Service kind                             : Complete Main
  42. Default                                  : Yes
  43. Forced                                   : No
  44. Text
  45. ID                                       : 3
  46. Format                                   : UTF-8
  47. Codec ID                                 : S_TEXT/UTF8
  48. Codec ID/Info                            : UTF-8 Plain Text
  49. Duration                                 : 1 h 28 min
  50. Bit rate                                 : 58 b/s
  51. Count of elements                        : 1252
  52. Stream size                              : 37.8 KiB (0%)
  53. Language                                 : English
  54. Default                                  : No
  55. Forced                                   : No
复制代码






                                       
                                       

                                       
                                       
                                       




回复

使用道具 举报

懒得打字嘛,点击右侧快捷回复 【右侧内容,后台自定义】
您需要登录后才可以回帖 登录 | 立即加入

本版积分规则

Archiver|小黑屋| 蓝光电影网 |网站地图

Copyright © 2021 Comsenz Inc. Powered by 蓝光电影网

蓝光电影网

本站内容由用户自主分享和转载自互联网,转载目的在于传递更多信息,并不代表本网赞同其观点和对其真实性负责。

如有侵权、违反国家法律政策行为,请联系我们,我们会第一时间及时清除和处理!

举报反馈邮箱:[email protected]

快速回复 返回顶部 返回列表