找回密码

蓝光电影网

查看: 1098|回复: 0

[剧情] 收税人 The.Tax.Collector.2020.1080p.BluRay.REMUX.AVC.DTS-HD.MA.5.1-FGT 16.18GB

[复制链接]
蓝光币
1704
发表于 2020-10-3 22:01:41 | 显示全部楼层 |阅读模式


◎译  名 收税人/Tax Collector/收账人
◎片  名 The Tax Collector
◎年  代 2020
◎产  地 美国
◎类  别 剧情 / 惊悚 / 犯罪
◎语  言 英语
◎上映日期 2020-08-07(美国)
◎IMDb评分  4.7/10 from 5752 users
◎IMDb链接  https://www.imdb.com/title/tt8461224/
◎豆瓣评分 4.7/10 from 246 users
◎豆瓣链接 https://movie.douban.com/subject/30254296/
◎片  长 95分钟
◎导  演 大卫·阿耶 David Ayer
◎编  剧 大卫·阿耶 David Ayer
◎主  演 希亚·拉博夫 Shia LaBeouf
       拉娜·帕瑞娅 Lana Parrilla
       辛西娅·卡蒙娜 Cinthya Carmona
       艾尔皮迪娅·卡里洛 Elpidia Carrillo
       乔治·洛佩兹 George Lopez
       切尔茜·兰顿 Chelsea Rendon
       诺埃米·冈萨雷斯 Noemi Gonzalez
       布兰登·舒博 Brendan Schaub
       雷内?莫兰 Rene Moran
       胡安·卡洛斯·坎图 Juan Carlos Cantu
       鲍比·索托 Bobby Soto
       兰迪·冈萨雷斯 Randy Gonzalez
       奎因·厄利 Quinn Early
◎标  签 犯罪 | 黑帮 | 美国 | 2020 | 行动 | 剧情 | 电影 | 惊悚
◎简  介


  Shia LaBeouf将与David Ayer再度合作《收税人》。
  
  电影报告男配角大卫·奎瓦斯(David Cuevas),他是一个垂青家庭的汉子,但工作却是为洛城黑帮高层收税的收账人。他与同伴Creeper穿越于城市之间收账,用各类方式逼人们掏钱,而欠账的则会遭到残暴的报复。但是,一位昔日仇敌的归来让奎瓦斯所爱的一切都堕入危险当中。
  1. Video
  2. ID                                       : 1
  3. ID in the original source medium         : 4113 (0x1011)
  4. Format                                   : AVC
  5. Format/Info                              : Advanced Video Codec
  6. Format profile                           : [email protected]
  7. Format settings                          : CABAC / 4 Ref Frames
  8. Format settings, CABAC                   : Yes
  9. Format settings, Reference frames        : 4 frames
  10. Codec ID                                 : V_MPEG4/ISO/AVC
  11. Duration                                 : 1 h 35 min
  12. Bit rate mode                            : Variable
  13. Bit rate                                 : 20.9 Mb/s
  14. Maximum bit rate                         : 36.0 Mb/s
  15. Width                                    : 1 920 pixels
  16. Height                                   : 1 080 pixels
  17. Display aspect ratio                     : 16:9
  18. Frame rate mode                          : Constant
  19. Frame rate                               : 24.000 FPS
  20. Color space                              : YUV
  21. Chroma subsampling                       : 4:2:0
  22. Bit depth                                : 8 bits
  23. Scan type                                : Progressive
  24. Bits/(Pixel*Frame)                       : 0.420
  25. Stream size                              : 13.9 GiB (86%)
  26. Title                                    : The.Tax.Collector.2020.1080p.BluRay.REMUX.AVC.DTS-HD.MA5.1-FGT
  27. Language                                 : English
  28. Default                                  : No
  29. Forced                                   : No
  30. Original source medium                   : Blu-ray
  31. Audio
  32. ID                                       : 2
  33. ID in the original source medium         : 4352 (0x1100)
  34. Format                                   : DTS XLL
  35. Format/Info                              : Digital Theater Systems
  36. Commercial name                          : DTS-HD Master Audio
  37. Codec ID                                 : A_DTS
  38. Duration                                 : 1 h 35 min
  39. Bit rate mode                            : Variable
  40. Bit rate                                 : 3 426 kb/s
  41. Channel(s)                               : 6 channels
  42. Channel layout                           : C L R Ls Rs LFE
  43. Sampling rate                            : 48.0 kHz
  44. Frame rate                               : 93.750 FPS (512 SPF)
  45. Bit depth                                : 24 bits
  46. Compression mode                         : Lossless
  47. Stream size                              : 2.28 GiB (14%)
  48. Title                                    : The.Tax.Collector.2020.1080p.BluRay.REMUX.AVC.DTS-HD.MA5.1-FGT
  49. Language                                 : English
  50. Default                                  : Yes
  51. Forced                                   : No
  52. Original source medium                   : Blu-ray
  53. Text #1
  54. ID                                       : 3
  55. Format                                   : UTF-8
  56. Codec ID                                 : S_TEXT/UTF8
  57. Codec ID/Info                            : UTF-8 Plain Text
  58. Duration                                 : 1 h 14 min
  59. Bit rate                                 : 4 b/s
  60. Count of elements                        : 81
  61. Stream size                              : 2.21 KiB (0%)
  62. Title                                    : English-FORCED-SRT
  63. Language                                 : English
  64. Default                                  : Yes
  65. Forced                                   : Yes
  66. Text #2
  67. ID                                       : 4
  68. Format                                   : UTF-8
  69. Codec ID                                 : S_TEXT/UTF8
  70. Codec ID/Info                            : UTF-8 Plain Text
  71. Duration                                 : 1 h 28 min
  72. Bit rate                                 : 60 b/s
  73. Count of elements                        : 1278
  74. Stream size                              : 39.1 KiB (0%)
  75. Title                                    : English-SRT
  76. Language                                 : English
  77. Default                                  : No
  78. Forced                                   : No
  79. Text #3
  80. ID                                       : 5
  81. ID in the original source medium         : 4608 (0x1200)
  82. Format                                   : PGS
  83. Muxing mode                              : zlib
  84. Codec ID                                 : S_HDMV/PGS
  85. Codec ID/Info                            : Picture based subtitle format used on BDs/HD-DVDs
  86. Duration                                 : 1 h 14 min
  87. Bit rate                                 : 1 744 b/s
  88. Count of elements                        : 162
  89. Stream size                              : 950 KiB (0%)
  90. Title                                    : English-FORCED-PGS
  91. Language                                 : English
  92. Default                                  : No
  93. Forced                                   : No
  94. Original source medium                   : Blu-ray
  95. Text #4
  96. ID                                       : 6
  97. ID in the original source medium         : 4609 (0x1201)
  98. Format                                   : PGS
  99. Muxing mode                              : zlib
  100. Codec ID                                 : S_HDMV/PGS
  101. Codec ID/Info                            : Picture based subtitle format used on BDs/HD-DVDs
  102. Duration                                 : 1 h 28 min
  103. Bit rate                                 : 26.5 kb/s
  104. Count of elements                        : 2670
  105. Stream size                              : 16.8 MiB (0%)
  106. Title                                    : English-PGS
  107. Language                                 : English
  108. Default                                  : No
  109. Forced                                   : No
  110. Original source medium                   : Blu-ray
  111. Text #5
  112. ID                                       : 7
  113. ID in the original source medium         : 4610 (0x1202)
  114. Format                                   : PGS
  115. Muxing mode                              : zlib
  116. Codec ID                                 : S_HDMV/PGS
  117. Codec ID/Info                            : Picture based subtitle format used on BDs/HD-DVDs
  118. Duration                                 : 1 h 28 min
  119. Bit rate                                 : 20.6 kb/s
  120. Count of elements                        : 2240
  121. Stream size                              : 13.0 MiB (0%)
  122. Title                                    : Spanish-PGS
  123. Language                                 : Spanish
  124. Default                                  : No
  125. Forced                                   : No
  126. Original source medium                   : Blu-ray
  127. Menu
  128. 00:00:00.000                             : en:Chapter 01
  129. 00:12:39.625                             : en:Chapter 02
  130. 00:25:28.041                             : en:Chapter 03
  131. 00:36:20.541                             : en:Chapter 04
  132. 00:48:56.083                             : en:Chapter 05
  133. 01:00:03.041                             : en:Chapter 06
  134. 01:15:27.833                             : en:Chapter 07
  135. 01:30:18.791                             : en:Chapter 08
复制代码





                                       
                                       

                                       
                                       
                                       




回复

使用道具 举报

懒得打字嘛,点击右侧快捷回复 【右侧内容,后台自定义】
您需要登录后才可以回帖 登录 | 立即加入

本版积分规则

Archiver|小黑屋| 蓝光电影网 |网站地图

Copyright © 2021 Comsenz Inc. Powered by 蓝光电影网

蓝光电影网

本站内容由用户自主分享和转载自互联网,转载目的在于传递更多信息,并不代表本网赞同其观点和对其真实性负责。

如有侵权、违反国家法律政策行为,请联系我们,我们会第一时间及时清除和处理!

举报反馈邮箱:4k1080.com@gmail.com

快速回复 返回顶部 返回列表