找回密码

蓝光电影网

查看: 763|回复: 8

[UHD.HEVC] 指环王1:魔戒再现/指环王I:护戒使者 The.Lord.of.the.Rings.The.Fellowship.of.the.Ring.2001.DISC2.EXTENDED.2160p.BluRay.REMUX.HEVC.DTS-HD.MA.TrueHD.7.1.Atmos-FGT 71.30GB

[复制链接]
蓝光币
1080
发表于 2020-12-2 09:27:35 | 显示全部楼层 |阅读模式


◎译  名 指环王1:魔戒再现/指环王I:护戒使者/魔戒1:护戒同盟/魔戒首部曲:魔戒现身
◎片  名 The Lord of the Rings: The Fellowship of the Ring
◎年  代 2001
◎产  地 新西兰,美国
◎类  别 剧情 / 行动 / 奇异 / 冒险
◎语  言 英语,辛达林语
◎上映日期 2001-12-19(美国) / 2002-04-04(中国大陆)
◎IMDb评分  8.8/10 from 1639421 users
◎IMDb链接  https://www.imdb.com/title/tt0120737/
◎豆瓣评分 9.0/10 from 597178 users
◎豆瓣链接 https://movie.douban.com/subject/1291571/
◎片  长 178分钟
◎导  演 彼得·杰克逊 Peter Jackson
◎编  剧 弗兰·威尔士 Fran Walsh / 菲利帕·鲍恩斯 Philippa Boyens / 彼得·杰克逊 Peter Jackson / J·R·R·托尔金 J.R.R. Tolkien
◎主  演 伊利亚·伍德 Elijah Wood
       西恩·奥斯汀 Sean Astin
       伊恩·麦克莱恩 Ian McKellen
       奥兰多·布鲁姆 Orlando Bloom
       维果·莫腾森 Viggo Mortensen
       多米尼克·莫纳汉 Dominic Monaghan
       比利·博伊德 Billy Boyd
       克里斯托弗·李 Christopher Lee
       马尔顿·索克斯 Marton Csokas
       梅根·爱德华兹 Megan Edwards
       伊安·霍姆 Ian Holm
       Michael Elsworth
       凯特·布兰切特 Cate Blanchett
       阿兰·霍华德 Alan Howard
       马克·弗格森 Mark Ferguson
       肖恩·宾 Sean Bean
       萨拉·贝克 Sala Baker
       Noel Appleby
       劳伦斯·马克奥雷 Lawrence Makoare
       安迪·瑟金斯 Andy Serkis
       彼得·麦肯齐 Peter McKenzie
       Sarah McLeod
       伊恩·穆内 Ian Mune
       克雷格·帕克 Craig Parker
       卡梅隆·罗德 Cameron Rhodes
       约翰·瑞斯-戴维斯 John Rhys-Davies
       马丁·桑德森 Martyn Sanderson
       Harry Sinclair
       丽芙·泰勒 Liv Tyler
       大卫·韦瑟莱 David Weatherley
       雨果·维文 Hugo Weaving
       菲利普·格里夫 Philip Grieve
       威廉·约翰逊 William Johnson
       伊丽莎白·穆迪 Elizabeth Moody
       布莱恩·瑟金特 Brian Sergent
       吉诺·阿赛维多 Gino Acevedo
       Jarl Benzon
       J?rn Benzon
       Ben Britton
       杰德·布罗菲 Jed Brophy
       诺曼·凯茨 Norman Cates
       兰德尔·威廉·库克 Randall William Cook
       萨比恩·克洛森 Sabine Crossen
       西奥沙福瓦 Siosa Fonua
       本·弗兰舍姆 Ben Fransham
       Jonathan Harding
       Taea Hartwell
       彼得·杰克逊 Peter Jackson
       Sam Kelly
       艾伦·李 Alan Lee
       姜广涛 Guangtao Jiang
       张磊 Lei Zhang
◎标  签 魔幻 | 史诗 | 典范 | 美国 | 大片 | 战争 | 新西兰 | 冒险
◎简  介


  比尔博?巴金斯是100多岁的哈比人,住在故乡夏尔,素性喜好冒险,在年轻时的一次探险履历中,他从怪物咕噜手中获得了至尊魔戒,这枚戒指是黑暗魔君索伦打造的至尊魔戒,具有奴役天下的邪恶气力,可以管辖其他几枚气力之戒,在3000年前的人类同盟和半兽人雄师的战争中,同盟获得了成功 ,并获得了至尊魔戒,数千年的辗转后,魔戒落到咕噜手中,被比尔博碰巧获得。
  
  由于和魔戒的旦夕相处,比尔博的心性也遭到了影响,在他111岁的生日宴会上,他决议把一切都留给侄子佛罗多(伊莱贾?伍德 饰),继续冒险。
  
  比尔博的好朋友灰袍巫师甘道夫(伊恩?麦凯伦 饰)晓得至尊魔戒的奥秘,同时,黑暗魔君索伦已经晓得他的魔戒落在哈比族的手中。索伦正在重新建造要塞巴拉多,集结无数的半兽人,预备以雄师 夺取魔戒,而且征服全天下。
  
  甘道夫压服佛罗多将魔戒护送到精灵王国瑞文希尔,佛罗多在好朋友山姆、皮和蔼梅利的伴随下,在跃马酒店获得了刚铎王子阿拉贡的帮助,历经艰难,终究到达了精灵王国。
  
  但是,精灵族并不愿意保管这个邪恶的至尊魔戒,中土列国代表开会会商,告竣定见,预备将至尊魔戒送到末日山脉的炎火中完全烧毁,佛罗多自告奋勇接管了这个使命,此次,陪伴他的除了三个好朋友,还有甘道夫、阿拉贡、精灵莱戈拉斯(奥兰多?布鲁姆 饰)、人类博罗米尔、侏儒金利。
  
  一路上,魔戒远征军除了要回避索伦爪牙黑骑士和半兽人的追杀之外,更要抵抗至尊魔戒自己的邪恶引诱,前途困难重重。
◎获奖情况
  第74届奥斯卡金像奖 ?(2002)
  最好影片(提名) 巴里·M·奥斯本?/?彼得·杰克逊?/?弗兰·威尔士
  最好导演(提名) 彼得·杰克逊
  最好男配角(提名) 伊恩·麦克莱恩
  最好改编剧本(提名) 菲利帕·鲍恩斯?/?彼得·杰克逊?/?弗兰·威尔士
  最好摄影 安德鲁·莱斯尼
  最好剪辑(提名) 约翰·吉尔伯特
  最好视觉结果 吉姆·瑞吉尔?/?兰德尔·威廉·库克?/?理查德·泰勒?/?马克·斯泰特森
  最好声响(提名) 盖辛·克里夫?/?哈蒙德·匹克?/?克里斯托弗·博伊斯?/?迈克尔·斯曼外科
  最好艺术指导(提名) 格兰特·梅杰?/?丹·汉纳
  最好打扮设想(提名) 恩吉拉·迪克森?/?理查德·泰勒
  最好化装 彼得·欧文?/?理查德·泰勒
  最好原创配乐 霍华德·肖
  最好原创歌曲(提名) 恩雅?/?尼基·瑞恩?/?罗马·瑞恩
  
  第59届金球奖 ?(2002)
  电影类最好剧情片(提名)
  电影类最好导演(提名) 彼得·杰克逊
  电影类最好原创配乐(提名) 霍华德·肖
  电影类最好原创歌曲(提名) 恩雅
  
  第26届日本电影学院奖 ?(2003)
  最好外语片(提名)
  
  第2届美国电影学会奖 ?(2001)
  年度佳片
  1. Video
  2. ID                                       : 1
  3. ID in the original source medium         : 4113 (0x1011)
  4. Format                                   : HEVC
  5. Format/Info                              : High Efficiency Video Coding
  6. Format profile                           : Main [email protected]@High
  7. HDR format                               : SMPTE ST 2086, HDR10 compatible
  8. Codec ID                                 : V_MPEGH/ISO/HEVC
  9. Duration                                 : 2 h 2 min
  10. Bit rate                                 : 64.2 Mb/s
  11. Width                                    : 3 840 pixels
  12. Height                                   : 2 160 pixels
  13. Display aspect ratio                     : 16:9
  14. Frame rate mode                          : Constant
  15. Frame rate                               : 23.976 (24000/1001/189150) FPS
  16. Color space                              : YUV
  17. Chroma subsampling                       : 4:2:0 (Type 2)
  18. Bit depth                                : 10 bits
  19. Bits/(Pixel*Frame)                       : 0.323
  20. Stream size                              : 55.0 GiB (77%)
  21. Title                                    : The.Lord.of.the.Rings.The.Fellowship.of.the.Ring.2001.DISC2.EXTENDED.2160p.BluRay.REMUX.HEVC.DTS-HD.MA.TrueHD.7.1.Atmos-FGT
  22. Language                                 : English
  23. Default                                  : No
  24. Forced                                   : No
  25. Color range                              : Limited
  26. Color primaries                          : BT.2020
  27. Transfer characteristics                 : PQ
  28. Matrix coefficients                      : BT.2020 non-constant
  29. Mastering display color primaries        : Display P3
  30. Mastering display luminance              : min: 0.0050 cd/m2, max: 4000 cd/m2
  31. Maximum Content Light Level              : 602 cd/m2
  32. Maximum Frame-Average Light Level        : 184 cd/m2
  33. Original source medium                   : Blu-ray
  34. Audio #1
  35. ID                                       : 2
  36. ID in the original source medium         : 4352 (0x1100)
  37. Format                                   : MLP FBA 16-ch
  38. Format/Info                              : Meridian Lossless Packing FBA with 16-channel presentation
  39. Commercial name                          : Dolby TrueHD with Dolby Atmos
  40. Codec ID                                 : A_TRUEHD
  41. Duration                                 : 2 h 2 min
  42. Bit rate mode                            : Variable
  43. Bit rate                                 : 2 989 kb/s
  44. Maximum bit rate                         : 4 845 kb/s
  45. Channel(s)                               : 8 channels
  46. Channel layout                           : L R C LFE Ls Rs Lb Rb
  47. Sampling rate                            : 48.0 kHz
  48. Frame rate                               : 1 200.000 FPS (40 SPF)
  49. Compression mode                         : Lossless
  50. Stream size                              : 2.56 GiB (4%)
  51. Title                                    : The.Lord.of.the.Rings.The.Fellowship.of.the.Ring.2001.DISC2.EXTENDED.2160p.BluRay.REMUX.HEVC.DTS-HD.MA.TrueHD.7.1.Atmos-FGT
  52. Language                                 : English
  53. Default                                  : Yes
  54. Forced                                   : No
  55. Original source medium                   : Blu-ray
  56. Number of dynamic objects                : 11
  57. Bed channel count                        : 1 channel
  58. Bed channel configuration                : LFE
  59. Audio #2
  60. ID                                       : 3
  61. Format                                   : DTS XLL
  62. Format/Info                              : Digital Theater Systems
  63. Commercial name                          : DTS-HD Master Audio
  64. Codec ID                                 : A_DTS
  65. Duration                                 : 2 h 2 min
  66. Bit rate mode                            : Variable
  67. Bit rate                                 : 3 761 kb/s
  68. Channel(s)                               : 8 channels
  69. Channel layout                           : C L R LFE Lb Rb Lss Rss
  70. Sampling rate                            : 48.0 kHz
  71. Frame rate                               : 93.750 FPS (512 SPF)
  72. Bit depth                                : 24 bits
  73. Compression mode                         : Lossless
  74. Stream size                              : 3.22 GiB (5%)
  75. Title                                    : The.Lord.of.the.Rings.The.Fellowship.of.the.Ring.2001.DISC2.EXTENDED.2160p.BluRay.REMUX.HEVC.DTS-HD.MA.TrueHD.7.1.Atmos-FGT
  76. Language                                 : English
  77. Default                                  : No
  78. Forced                                   : No
  79. Audio #3
  80. ID                                       : 4
  81. ID in the original source medium         : 4352 (0x1100)
  82. Format                                   : AC-3
  83. Format/Info                              : Audio Coding 3
  84. Commercial name                          : Dolby Digital
  85. Codec ID                                 : A_AC3
  86. Duration                                 : 2 h 2 min
  87. Bit rate mode                            : Constant
  88. Bit rate                                 : 448 kb/s
  89. Channel(s)                               : 6 channels
  90. Channel layout                           : L R C LFE Ls Rs
  91. Sampling rate                            : 48.0 kHz
  92. Frame rate                               : 31.250 FPS (1536 SPF)
  93. Compression mode                         : Lossy
  94. Stream size                              : 393 MiB (1%)
  95. Title                                    : The.Lord.of.the.Rings.The.Fellowship.of.the.Ring.2001.DISC2.EXTENDED.2160p.BluRay.REMUX.HEVC.DTS-HD.MA.TrueHD.7.1.Atmos-FGT
  96. Language                                 : English
  97. Service kind                             : Complete Main
  98. Default                                  : No
  99. Forced                                   : No
  100. Original source medium                   : Blu-ray
  101. Audio #4
  102. ID                                       : 5
  103. ID in the original source medium         : 4353 (0x1101)
  104. Format                                   : DTS XLL
  105. Format/Info                              : Digital Theater Systems
  106. Commercial name                          : DTS-HD Master Audio
  107. Codec ID                                 : A_DTS
  108. Duration                                 : 2 h 2 min
  109. Bit rate mode                            : Variable
  110. Bit rate                                 : 2 345 kb/s
  111. Channel(s)                               : 6 channels
  112. Channel layout                           : C L R Ls Rs LFE
  113. Sampling rate                            : 48.0 kHz
  114. Frame rate                               : 93.750 FPS (512 SPF)
  115. Bit depth                                : 16 bits
  116. Compression mode                         : Lossless
  117. Stream size                              : 2.01 GiB (3%)
  118. Title                                    : The.Lord.of.the.Rings.The.Fellowship.of.the.Ring.2001.DISC2.EXTENDED.2160p.BluRay.REMUX.HEVC.DTS-HD.MA.TrueHD.7.1.Atmos-FGT
  119. Language                                 : French
  120. Default                                  : No
  121. Forced                                   : No
  122. Original source medium                   : Blu-ray
  123. Audio #5
  124. ID                                       : 6
  125. ID in the original source medium         : 4354 (0x1102)
  126. Format                                   : DTS ES XXCH XLL
  127. Format/Info                              : Digital Theater Systems
  128. Commercial name                          : DTS-HD Master Audio
  129. Codec ID                                 : A_DTS
  130. Duration                                 : 2 h 2 min
  131. Bit rate mode                            : Variable
  132. Bit rate                                 : 2 628 kb/s
  133. Channel(s)                               : 7 channels
  134. Channel layout                           : C L R Ls Rs LFE Cb
  135. Sampling rate                            : 48.0 kHz
  136. Frame rate                               : 93.750 FPS (512 SPF)
  137. Bit depth                                : 16 bits
  138. Compression mode                         : Lossless
  139. Stream size                              : 2.25 GiB (3%)
  140. Title                                    : The.Lord.of.the.Rings.The.Fellowship.of.the.Ring.2001.DISC2.EXTENDED.2160p.BluRay.REMUX.HEVC.DTS-HD.MA.TrueHD.7.1.Atmos-FGT
  141. Language                                 : German
  142. Default                                  : No
  143. Forced                                   : No
  144. Original source medium                   : Blu-ray
  145. Audio #6
  146. ID                                       : 7
  147. ID in the original source medium         : 4355 (0x1103)
  148. Format                                   : DTS ES XLL
  149. Format/Info                              : Digital Theater Systems
  150. Commercial name                          : DTS-HD Master Audio
  151. Codec ID                                 : A_DTS
  152. Duration                                 : 2 h 2 min
  153. Bit rate mode                            : Variable
  154. Bit rate                                 : 2 147 kb/s
  155. Channel(s)                               : 6 channels
  156. Channel(s)_Original                      : 7 channels
  157. ChannelLayout_Original                   : C L R Ls Rs LFE Cs
  158. Sampling rate                            : 48.0 kHz
  159. Frame rate                               : 93.750 FPS (512 SPF)
  160. Bit depth                                : 16 bits
  161. Compression mode                         : Lossless
  162. Stream size                              : 1.84 GiB (3%)
  163. Title                                    : The.Lord.of.the.Rings.The.Fellowship.of.the.Ring.2001.DISC2.EXTENDED.2160p.BluRay.REMUX.HEVC.DTS-HD.MA.TrueHD.7.1.Atmos-FGT
  164. Language                                 : Italian
  165. Default                                  : No
  166. Forced                                   : No
  167. Original source medium                   : Blu-ray
  168. Audio #7
  169. ID                                       : 8
  170. ID in the original source medium         : 4356 (0x1104)
  171. Format                                   : DTS ES XLL
  172. Format/Info                              : Digital Theater Systems
  173. Commercial name                          : DTS-HD Master Audio
  174. Codec ID                                 : A_DTS
  175. Duration                                 : 2 h 2 min
  176. Bit rate mode                            : Variable
  177. Bit rate                                 : 2 184 kb/s
  178. Channel(s)                               : 6 channels
  179. Channel(s)_Original                      : 7 channels
  180. ChannelLayout_Original                   : C L R Ls Rs LFE Cs
  181. Sampling rate                            : 48.0 kHz
  182. Frame rate                               : 93.750 FPS (512 SPF)
  183. Bit depth                                : 16 bits
  184. Compression mode                         : Lossless
  185. Stream size                              : 1.87 GiB (3%)
  186. Title                                    : The.Lord.of.the.Rings.The.Fellowship.of.the.Ring.2001.DISC2.EXTENDED.2160p.BluRay.REMUX.HEVC.DTS-HD.MA.TrueHD.7.1.Atmos-FGT
  187. Language                                 : Spanish
  188. Default                                  : No
  189. Forced                                   : No
  190. Original source medium                   : Blu-ray
  191. Audio #8
  192. ID                                       : 9
  193. ID in the original source medium         : 4357 (0x1105)
  194. Format                                   : DTS XLL
  195. Format/Info                              : Digital Theater Systems
  196. Commercial name                          : DTS-HD Master Audio
  197. Codec ID                                 : A_DTS
  198. Duration                                 : 2 h 2 min
  199. Bit rate mode                            : Variable
  200. Bit rate                                 : 2 323 kb/s
  201. Channel(s)                               : 6 channels
  202. Channel layout                           : C L R Ls Rs LFE
  203. Sampling rate                            : 48.0 kHz
  204. Frame rate                               : 93.750 FPS (512 SPF)
  205. Bit depth                                : 16 bits
  206. Compression mode                         : Lossless
  207. Stream size                              : 1.99 GiB (3%)
  208. Title                                    : The.Lord.of.the.Rings.The.Fellowship.of.the.Ring.2001.DISC2.EXTENDED.2160p.BluRay.REMUX.HEVC.DTS-HD.MA.TrueHD.7.1.Atmos-FGT
  209. Language                                 : Japanese
  210. Default                                  : No
  211. Forced                                   : No
  212. Original source medium                   : Blu-ray
  213. Text #1
  214. ID                                       : 10
  215. Format                                   : UTF-8
  216. Codec ID                                 : S_TEXT/UTF8
  217. Codec ID/Info                            : UTF-8 Plain Text
  218. Duration                                 : 1 h 33 min
  219. Bit rate                                 : 30 b/s
  220. Count of elements                        : 679
  221. Stream size                              : 20.8 KiB (0%)
  222. Title                                    : English-SRT
  223. Language                                 : English
  224. Default                                  : Yes
  225. Forced                                   : No
  226. Text #2
  227. ID                                       : 11
  228. ID in the original source medium         : 4768 (0x12A0)
  229. Format                                   : PGS
  230. Muxing mode                              : zlib
  231. Codec ID                                 : S_HDMV/PGS
  232. Codec ID/Info                            : Picture based subtitle format used on BDs/HD-DVDs
  233. Duration                                 : 1 h 33 min
  234. Bit rate                                 : 18.7 kb/s
  235. Count of elements                        : 1444
  236. Stream size                              : 12.5 MiB (0%)
  237. Title                                    : English-PGS
  238. Language                                 : English
  239. Default                                  : No
  240. Forced                                   : No
  241. Original source medium                   : Blu-ray
  242. Text #3
  243. ID                                       : 12
  244. ID in the original source medium         : 4769 (0x12A1)
  245. Format                                   : PGS
  246. Muxing mode                              : zlib
  247. Codec ID                                 : S_HDMV/PGS
  248. Codec ID/Info                            : Picture based subtitle format used on BDs/HD-DVDs
  249. Duration                                 : 2 h 1 min
  250. Bit rate                                 : 13.4 kb/s
  251. Count of elements                        : 1452
  252. Stream size                              : 11.7 MiB (0%)
  253. Title                                    : French-PGS
  254. Language                                 : French
  255. Default                                  : No
  256. Forced                                   : No
  257. Original source medium                   : Blu-ray
  258. Text #4
  259. ID                                       : 13
  260. ID in the original source medium         : 4770 (0x12A2)
  261. Format                                   : PGS
  262. Muxing mode                              : zlib
  263. Codec ID                                 : S_HDMV/PGS
  264. Codec ID/Info                            : Picture based subtitle format used on BDs/HD-DVDs
  265. Duration                                 : 1 h 41 min
  266. Bit rate                                 : 19.9 kb/s
  267. Count of elements                        : 1460
  268. Stream size                              : 14.5 MiB (0%)
  269. Title                                    : German-PGS
  270. Language                                 : German
  271. Default                                  : No
  272. Forced                                   : No
  273. Original source medium                   : Blu-ray
  274. Text #5
  275. ID                                       : 14
  276. ID in the original source medium         : 4771 (0x12A3)
  277. Format                                   : PGS
  278. Muxing mode                              : zlib
  279. Codec ID                                 : S_HDMV/PGS
  280. Codec ID/Info                            : Picture based subtitle format used on BDs/HD-DVDs
  281. Duration                                 : 1 h 41 min
  282. Bit rate                                 : 17.7 kb/s
  283. Count of elements                        : 1454
  284. Stream size                              : 12.9 MiB (0%)
  285. Title                                    : Italian-PGS
  286. Language                                 : Italian
  287. Default                                  : No
  288. Forced                                   : No
  289. Original source medium                   : Blu-ray
  290. Text #6
  291. ID                                       : 15
  292. ID in the original source medium         : 4772 (0x12A4)
  293. Format                                   : PGS
  294. Muxing mode                              : zlib
  295. Codec ID                                 : S_HDMV/PGS
  296. Codec ID/Info                            : Picture based subtitle format used on BDs/HD-DVDs
  297. Duration                                 : 2 h 1 min
  298. Bit rate                                 : 14.0 kb/s
  299. Count of elements                        : 1380
  300. Stream size                              : 12.2 MiB (0%)
  301. Title                                    : Spanish-PGS
  302. Language                                 : Spanish
  303. Default                                  : No
  304. Forced                                   : No
  305. Original source medium                   : Blu-ray
  306. Text #7
  307. ID                                       : 16
  308. ID in the original source medium         : 4773 (0x12A5)
  309. Format                                   : PGS
  310. Muxing mode                              : zlib
  311. Codec ID                                 : S_HDMV/PGS
  312. Codec ID/Info                            : Picture based subtitle format used on BDs/HD-DVDs
  313. Duration                                 : 2 h 1 min
  314. Bit rate                                 : 14.3 kb/s
  315. Count of elements                        : 1358
  316. Stream size                              : 12.5 MiB (0%)
  317. Title                                    : Dutch-PGS
  318. Language                                 : Dutch
  319. Default                                  : No
  320. Forced                                   : No
  321. Original source medium                   : Blu-ray
  322. Text #8
  323. ID                                       : 17
  324. ID in the original source medium         : 4774 (0x12A6)
  325. Format                                   : PGS
  326. Muxing mode                              : zlib
  327. Codec ID                                 : S_HDMV/PGS
  328. Codec ID/Info                            : Picture based subtitle format used on BDs/HD-DVDs
  329. Duration                                 : 1 h 41 min
  330. Bit rate                                 : 15.2 kb/s
  331. Count of elements                        : 1418
  332. Stream size                              : 11.1 MiB (0%)
  333. Title                                    : Chinese-PGS
  334. Language                                 : Chinese
  335. Default                                  : No
  336. Forced                                   : No
  337. Original source medium                   : Blu-ray
  338. Text #9
  339. ID                                       : 18
  340. ID in the original source medium         : 4775 (0x12A7)
  341. Format                                   : PGS
  342. Muxing mode                              : zlib
  343. Codec ID                                 : S_HDMV/PGS
  344. Codec ID/Info                            : Picture based subtitle format used on BDs/HD-DVDs
  345. Duration                                 : 1 h 41 min
  346. Bit rate                                 : 13.9 kb/s
  347. Count of elements                        : 1376
  348. Stream size                              : 10.1 MiB (0%)
  349. Title                                    : Chinese-PGS
  350. Language                                 : Chinese
  351. Default                                  : No
  352. Forced                                   : No
  353. Original source medium                   : Blu-ray
  354. Text #10
  355. ID                                       : 19
  356. ID in the original source medium         : 4776 (0x12A8)
  357. Format                                   : PGS
  358. Muxing mode                              : zlib
  359. Codec ID                                 : S_HDMV/PGS
  360. Codec ID/Info                            : Picture based subtitle format used on BDs/HD-DVDs
  361. Duration                                 : 1 h 41 min
  362. Bit rate                                 : 13.6 kb/s
  363. Count of elements                        : 1378
  364. Stream size                              : 9.90 MiB (0%)
  365. Title                                    : Korean-PGS
  366. Language                                 : Korean
  367. Default                                  : No
  368. Forced                                   : No
  369. Original source medium                   : Blu-ray
  370. Text #11
  371. ID                                       : 20
  372. ID in the original source medium         : 4777 (0x12A9)
  373. Format                                   : PGS
  374. Muxing mode                              : zlib
  375. Codec ID                                 : S_HDMV/PGS
  376. Codec ID/Info                            : Picture based subtitle format used on BDs/HD-DVDs
  377. Duration                                 : 2 h 1 min
  378. Bit rate                                 : 13.9 kb/s
  379. Count of elements                        : 1372
  380. Stream size                              : 12.1 MiB (0%)
  381. Title                                    : Spanish-PGS
  382. Language                                 : Spanish
  383. Default                                  : No
  384. Forced                                   : No
  385. Original source medium                   : Blu-ray
  386. Text #12
  387. ID                                       : 21
  388. ID in the original source medium         : 4778 (0x12AA)
  389. Format                                   : PGS
  390. Muxing mode                              : zlib
  391. Codec ID                                 : S_HDMV/PGS
  392. Codec ID/Info                            : Picture based subtitle format used on BDs/HD-DVDs
  393. Duration                                 : 1 h 41 min
  394. Bit rate                                 : 15.3 kb/s
  395. Count of elements                        : 1376
  396. Stream size                              : 11.1 MiB (0%)
  397. Title                                    : Czech-PGS
  398. Language                                 : Czech
  399. Default                                  : No
  400. Forced                                   : No
  401. Original source medium                   : Blu-ray
  402. Text #13
  403. ID                                       : 22
  404. ID in the original source medium         : 4779 (0x12AB)
  405. Format                                   : PGS
  406. Muxing mode                              : zlib
  407. Codec ID                                 : S_HDMV/PGS
  408. Codec ID/Info                            : Picture based subtitle format used on BDs/HD-DVDs
  409. Duration                                 : 2 h 1 min
  410. Bit rate                                 : 13.3 kb/s
  411. Count of elements                        : 1376
  412. Stream size                              : 11.6 MiB (0%)
  413. Title                                    : Danish-PGS
  414. Language                                 : Danish
  415. Default                                  : No
  416. Forced                                   : No
  417. Original source medium                   : Blu-ray
  418. Text #14
  419. ID                                       : 23
  420. ID in the original source medium         : 4780 (0x12AC)
  421. Format                                   : PGS
  422. Muxing mode                              : zlib
  423. Codec ID                                 : S_HDMV/PGS
  424. Codec ID/Info                            : Picture based subtitle format used on BDs/HD-DVDs
  425. Duration                                 : 2 h 1 min
  426. Bit rate                                 : 13.8 kb/s
  427. Count of elements                        : 1370
  428. Stream size                              : 12.0 MiB (0%)
  429. Title                                    : Finnish-PGS
  430. Language                                 : Finnish
  431. Default                                  : No
  432. Forced                                   : No
  433. Original source medium                   : Blu-ray
  434. Text #15
  435. ID                                       : 24
  436. ID in the original source medium         : 4781 (0x12AD)
  437. Format                                   : PGS
  438. Muxing mode                              : zlib
  439. Codec ID                                 : S_HDMV/PGS
  440. Codec ID/Info                            : Picture based subtitle format used on BDs/HD-DVDs
  441. Duration                                 : 2 h 1 min
  442. Bit rate                                 : 15.1 kb/s
  443. Count of elements                        : 1378
  444. Stream size                              : 13.1 MiB (0%)
  445. Title                                    : Greek-PGS
  446. Language                                 : Greek
  447. Default                                  : No
  448. Forced                                   : No
  449. Original source medium                   : Blu-ray
  450. Text #16
  451. ID                                       : 25
  452. ID in the original source medium         : 4782 (0x12AE)
  453. Format                                   : PGS
  454. Muxing mode                              : zlib
  455. Codec ID                                 : S_HDMV/PGS
  456. Codec ID/Info                            : Picture based subtitle format used on BDs/HD-DVDs
  457. Duration                                 : 2 h 1 min
  458. Bit rate                                 : 13.6 kb/s
  459. Count of elements                        : 1378
  460. Stream size                              : 11.9 MiB (0%)
  461. Title                                    : Norwegian-PGS
  462. Language                                 : Norwegian
  463. Default                                  : No
  464. Forced                                   : No
  465. Original source medium                   : Blu-ray
  466. Text #17
  467. ID                                       : 26
  468. ID in the original source medium         : 4783 (0x12AF)
  469. Format                                   : PGS
  470. Muxing mode                              : zlib
  471. Codec ID                                 : S_HDMV/PGS
  472. Codec ID/Info                            : Picture based subtitle format used on BDs/HD-DVDs
  473. Duration                                 : 1 h 41 min
  474. Bit rate                                 : 14.9 kb/s
  475. Count of elements                        : 1384
  476. Stream size                              : 10.8 MiB (0%)
  477. Title                                    : Polish-PGS
  478. Language                                 : Polish
  479. Default                                  : No
  480. Forced                                   : No
  481. Original source medium                   : Blu-ray
  482. Text #18
  483. ID                                       : 27
  484. ID in the original source medium         : 4784 (0x12B0)
  485. Format                                   : PGS
  486. Muxing mode                              : zlib
  487. Codec ID                                 : S_HDMV/PGS
  488. Codec ID/Info                            : Picture based subtitle format used on BDs/HD-DVDs
  489. Duration                                 : 2 h 1 min
  490. Bit rate                                 : 13.5 kb/s
  491. Count of elements                        : 1378
  492. Stream size                              : 11.8 MiB (0%)
  493. Title                                    : Swedish-PGS
  494. Language                                 : Swedish
  495. Default                                  : No
  496. Forced                                   : No
  497. Original source medium                   : Blu-ray
  498. Text #19
  499. ID                                       : 28
  500. ID in the original source medium         : 4785 (0x12B1)
  501. Format                                   : PGS
  502. Muxing mode                              : zlib
  503. Codec ID                                 : S_HDMV/PGS
  504. Codec ID/Info                            : Picture based subtitle format used on BDs/HD-DVDs
  505. Duration                                 : 1 h 41 min
  506. Bit rate                                 : 16.4 kb/s
  507. Count of elements                        : 1376
  508. Stream size                              : 11.9 MiB (0%)
  509. Title                                    : Thai-PGS
  510. Language                                 : Thai
  511. Default                                  : No
  512. Forced                                   : No
  513. Original source medium                   : Blu-ray
  514. Text #20
  515. ID                                       : 29
  516. ID in the original source medium         : 4786 (0x12B2)
  517. Format                                   : PGS
  518. Muxing mode                              : zlib
  519. Codec ID                                 : S_HDMV/PGS
  520. Codec ID/Info                            : Picture based subtitle format used on BDs/HD-DVDs
  521. Duration                                 : 1 h 5 min
  522. Bit rate                                 : 656 b/s
  523. Count of elements                        : 30
  524. Stream size                              : 316 KiB (0%)
  525. Title                                    : French-FORCED-PGS
  526. Language                                 : French
  527. Default                                  : No
  528. Forced                                   : No
  529. Original source medium                   : Blu-ray
  530. Text #21
  531. ID                                       : 30
  532. ID in the original source medium         : 4787 (0x12B3)
  533. Format                                   : PGS
  534. Muxing mode                              : zlib
  535. Codec ID                                 : S_HDMV/PGS
  536. Codec ID/Info                            : Picture based subtitle format used on BDs/HD-DVDs
  537. Duration                                 : 1 h 41 min
  538. Bit rate                                 : 530 b/s
  539. Count of elements                        : 36
  540. Stream size                              : 394 KiB (0%)
  541. Title                                    : German-FORCED-PGS
  542. Language                                 : German
  543. Default                                  : No
  544. Forced                                   : No
  545. Original source medium                   : Blu-ray
  546. Text #22
  547. ID                                       : 31
  548. ID in the original source medium         : 4788 (0x12B4)
  549. Format                                   : PGS
  550. Muxing mode                              : zlib
  551. Codec ID                                 : S_HDMV/PGS
  552. Codec ID/Info                            : Picture based subtitle format used on BDs/HD-DVDs
  553. Duration                                 : 1 h 41 min
  554. Bit rate                                 : 432 b/s
  555. Count of elements                        : 36
  556. Stream size                              : 321 KiB (0%)
  557. Title                                    : Italian-FORCED-PGS
  558. Language                                 : Italian
  559. Default                                  : No
  560. Forced                                   : No
  561. Original source medium                   : Blu-ray
  562. Text #23
  563. ID                                       : 32
  564. ID in the original source medium         : 4789 (0x12B5)
  565. Format                                   : PGS
  566. Muxing mode                              : zlib
  567. Codec ID                                 : S_HDMV/PGS
  568. Codec ID/Info                            : Picture based subtitle format used on BDs/HD-DVDs
  569. Duration                                 : 1 h 5 min
  570. Bit rate                                 : 550 b/s
  571. Count of elements                        : 30
  572. Stream size                              : 265 KiB (0%)
  573. Title                                    : Spanish-FORCED-PGS
  574. Language                                 : Spanish
  575. Default                                  : No
  576. Forced                                   : No
  577. Original source medium                   : Blu-ray
  578. Text #24
  579. ID                                       : 33
  580. ID in the original source medium         : 4790 (0x12B6)
  581. Format                                   : PGS
  582. Muxing mode                              : zlib
  583. Codec ID                                 : S_HDMV/PGS
  584. Codec ID/Info                            : Picture based subtitle format used on BDs/HD-DVDs
  585. Duration                                 : 1 h 41 min
  586. Bit rate                                 : 15.3 kb/s
  587. Count of elements                        : 1510
  588. Stream size                              : 11.1 MiB (0%)
  589. Title                                    : Japanese-PGS
  590. Language                                 : Japanese
  591. Default                                  : No
  592. Forced                                   : No
  593. Original source medium                   : Blu-ray
  594. Text #25
  595. ID                                       : 34
  596. ID in the original source medium         : 4791 (0x12B7)
  597. Format                                   : PGS
  598. Muxing mode                              : zlib
  599. Codec ID                                 : S_HDMV/PGS
  600. Codec ID/Info                            : Picture based subtitle format used on BDs/HD-DVDs
  601. Duration                                 : 1 h 41 min
  602. Bit rate                                 : 1 790 b/s
  603. Count of elements                        : 150
  604. Stream size                              : 1.29 MiB (0%)
  605. Title                                    : Japanese-FORCED-PGS
  606. Language                                 : Japanese
  607. Default                                  : No
  608. Forced                                   : No
  609. Original source medium                   : Blu-ray
  610. Menu
  611. 00:00:00.000                             : en:Chapter 01
  612. 00:01:15.784                             : en:Chapter 02
  613. 00:02:58.803                             : en:Chapter 03
  614. 00:04:16.297                             : en:Chapter 04
  615. 00:07:22.150                             : en:Chapter 05
  616. 00:12:08.352                             : en:Chapter 06
  617. 00:18:33.987                             : en:Chapter 07
  618. 00:25:04.377                             : en:Chapter 08
  619. 00:34:28.900                             : en:Chapter 09
  620. 00:44:10.397                             : en:Chapter 10
  621. 00:47:23.215                             : en:Chapter 11
  622. 00:54:40.151                             : en:Chapter 12
  623. 01:00:19.907                             : en:Chapter 13
  624. 01:02:00.466                             : en:Chapter 14
  625. 01:07:24.123                             : en:Chapter 15
  626. 01:12:16.373                             : en:Chapter 16
  627. 01:18:44.302                             : en:Chapter 17
  628. 01:26:00.071                             : en:Chapter 18
  629. 01:28:42.358                             : en:Chapter 19
  630. 01:35:00.486                             : en:Chapter 20
  631. 01:42:41.321                             : en:Chapter 21
复制代码



                                       
                                       

                                       
                                       
                                       



回复

使用道具 举报

蓝光币
60
发表于 2021-9-15 21:20:36 | 显示全部楼层
这个种子有问题
回复 支持 反对

使用道具 举报

蓝光币
1080
 楼主| 发表于 2021-9-19 01:37:46 | 显示全部楼层

已纠正
回复 支持 反对

使用道具 举报

蓝光币
60
发表于 2021-12-16 09:59:58 | 显示全部楼层

依然有问题,种子文件解析失败
回复 支持 反对

使用道具 举报

蓝光币
1
发表于 2021-12-31 11:14:51 | 显示全部楼层
依然有问题
回复 支持 反对

使用道具 举报

蓝光币
0
发表于 2022-1-8 12:09:11 | 显示全部楼层
依然有问题
回复 支持 反对

使用道具 举报

蓝光币
1
发表于 2022-1-9 19:33:42 | 显示全部楼层
种子有问题
回复 支持 反对

使用道具 举报

蓝光币
0
发表于 2022-6-28 19:05:34 | 显示全部楼层

版主,貌似种子还是有问题呢,无法解析,可以再看一下吗?~~谢谢呢
回复 支持 反对

使用道具 举报

蓝光币
48
发表于 2022-9-5 22:53:49 | 显示全部楼层

感谢楼主的无私分享!要想蓝光电影网好 就靠你我他
回复 支持 反对

使用道具 举报

懒得打字嘛,点击右侧快捷回复 【右侧内容,后台自定义】
您需要登录后才可以回帖 登录 | 立即加入

本版积分规则

Archiver|小黑屋| 蓝光电影网 |网站地图

Copyright © 2021 Comsenz Inc. Powered by 蓝光电影网

蓝光电影网

本站内容由用户自主分享和转载自互联网,转载目的在于传递更多信息,并不代表本网赞同其观点和对其真实性负责。

如有侵权、违反国家法律政策行为,请联系我们,我们会第一时间及时清除和处理!

举报反馈邮箱:[email protected]

快速回复 返回顶部 返回列表