找回密码

蓝光电影网

查看: 57|回复: 0

[2160p] 职业枪手 The.Specialists.1969.ITALIAN.2160p.BluRay.x264.8bit.SDR.DTS-HD.MA.2.0-SWTYBLZ 47.31GB

[复制链接]
蓝光币
1084
发表于 2020-9-9 18:21:40 | 显示全部楼层 |阅读模式


◎译  名 职业枪手/Le Specialiste/The Specialists/職業鎗手(港)
◎片  名 Gli specialisti
◎年  代 1969
◎产  地 意大利,法国,西德
◎类  别 西部
◎语  言 意大利语
◎上映日期 1969
◎IMDb评分  6.3/10 from 747 users
◎IMDb链接  https://www.imdb.com/title/tt0065026/
◎豆瓣评分 /10 from 0 users
◎豆瓣链接 https://movie.douban.com/subject/5156643/
◎片  长 104 分钟
◎导  演 赛尔乔·科尔布奇 Sergio Corbucci
◎编  剧 赛尔乔·科尔布奇 Sergio Corbucci
◎主  演 吉诺·佩尔尼切 Gino Pernice
       Riccardo Pizzuti
       雷纳托·平奇罗利 Renato Pinciroli
       加斯通·莫辛 Gastone Moschin
       贝里奇·蒙迪纳罗 Brizio Montinaro
       塞尔日·马康 Serge Marquand
       西尔薇·费内克 Sylvie Fennec
       Pietro Ceccarelli
       马里奥·阿多夫 Mario Adorf
       弗兰西丝·法比安 Fran?oise Fabian
       安吉拉·露西 Angela Luce
       约翰尼·哈里戴 Johnny Hallyday
       Andrés José Cruz Soublette
◎标  签 意大利 | 1969 | 西部 | western | SergioCorbucci | 西德 | 被轻忽的电影 | 法国
◎简  介


  暂无相关剧情先容
  1. Video
  2. ID                                       : 1
  3. Format                                   : AVC
  4. Format/Info                              : Advanced Video Codec
  5. Format profile                           : [email protected]
  6. Format settings                          : CABAC / 5 Ref Frames
  7. Format settings, CABAC                   : Yes
  8. Format settings, Reference frames        : 5 frames
  9. Codec ID                                 : V_MPEG4/ISO/AVC
  10. Duration                                 : 1 h 44 min
  11. Bit rate                                 : 62.2 Mb/s
  12. Width                                    : 3 840 pixels
  13. Height                                   : 1 634 pixels
  14. Display aspect ratio                     : 2.35:1
  15. Frame rate mode                          : Constant
  16. Frame rate                               : 24.000 FPS
  17. Color space                              : YUV
  18. Chroma subsampling                       : 4:2:0
  19. Bit depth                                : 8 bits
  20. Scan type                                : Progressive
  21. Bits/(Pixel*Frame)                       : 0.413
  22. Stream size                              : 45.4 GiB (96%)
  23. Title                                    : The.Specialists.1969.ITALIAN.2160p.BluRay.x264.8bit.SDR.DTS-HD.MA.2.0-SWTYBLZ
  24. Writing library                          : x264 core 157 r2935 545de2f
  25. Encoding settings                        : cabac=1 / ref=5 / deblock=1:-1:-1 / analyse=0x3:0x113 / me=umh / subme=10 / psy=1 / psy_rd=1.00:0.15 / mixed_ref=1 / me_range=48 / chroma_me=1 / trellis=2 / 8x8dct=1 / cqm=0 / deadzone=21,11 / fast_pskip=1 / chroma_qp_offset=-3 / threads=48 / lookahead_threads=4 / sliced_threads=0 / nr=0 / decimate=0 / interlaced=0 / bluray_compat=0 / constrained_intra=0 / bframes=3 / b_pyramid=2 / b_adapt=2 / b_bias=0 / direct=3 / weightb=1 / open_gop=0 / weightp=2 / keyint=250 / keyint_min=23 / scenecut=40 / intra_refresh=0 / rc_lookahead=50 / rc=crf / mbtree=1 / crf=18.0 / qcomp=0.60 / qpmin=0 / qpmax=69 / qpstep=4 / ip_ratio=1.40 / aq=1:1.00
  26. Language                                 : Italian
  27. Default                                  : Yes
  28. Forced                                   : No
  29. Audio #1
  30. ID                                       : 2
  31. ID in the original source medium         : 4353 (0x1101)
  32. Format                                   : DTS XLL
  33. Format/Info                              : Digital Theater Systems
  34. Commercial name                          : DTS-HD Master Audio
  35. Codec ID                                 : A_DTS
  36. Duration                                 : 1 h 44 min
  37. Bit rate mode                            : Variable
  38. Bit rate                                 : 1 779 kb/s
  39. Channel(s)                               : 2 channels
  40. Channel layout                           : L R
  41. Sampling rate                            : 48.0 kHz
  42. Frame rate                               : 93.750 FPS (512 SPF)
  43. Bit depth                                : 24 bits
  44. Compression mode                         : Lossless
  45. Stream size                              : 1.30 GiB (3%)
  46. Title                                    : The.Specialists.1969.ITALIAN.2160p.BluRay.x264.8bit.SDR.DTS-HD.MA.2.0-SWTYBLZ
  47. Language                                 : Italian
  48. Default                                  : Yes
  49. Forced                                   : No
  50. Original source medium                   : Blu-ray
  51. Audio #2
  52. ID                                       : 3
  53. Format                                   : AC-3
  54. Format/Info                              : Audio Coding 3
  55. Commercial name                          : Dolby Digital
  56. Codec ID                                 : A_AC3
  57. Duration                                 : 1 h 44 min
  58. Bit rate mode                            : Constant
  59. Bit rate                                 : 640 kb/s
  60. Channel(s)                               : 2 channels
  61. Channel layout                           : L R
  62. Sampling rate                            : 48.0 kHz
  63. Frame rate                               : 31.250 FPS (1536 SPF)
  64. Compression mode                         : Lossy
  65. Stream size                              : 478 MiB (1%)
  66. Title                                    : The.Specialists.1969.ITALIAN.2160p.BluRay.x264.8bit.SDR.DTS-HD.MA.2.0-SWTYBLZ
  67. Language                                 : Italian
  68. Service kind                             : Complete Main
  69. Default                                  : No
  70. Forced                                   : No
  71. Text #1
  72. ID                                       : 4
  73. Format                                   : UTF-8
  74. Codec ID                                 : S_TEXT/UTF8
  75. Codec ID/Info                            : UTF-8 Plain Text
  76. Duration                                 : 1 h 44 min
  77. Bit rate                                 : 39 b/s
  78. Count of elements                        : 1151
  79. Stream size                              : 30.1 KiB (0%)
  80. Title                                    : English-SRT
  81. Language                                 : English
  82. Default                                  : Yes
  83. Forced                                   : No
  84. Text #2
  85. ID                                       : 5
  86. ID in the original source medium         : 4608 (0x1200)
  87. Format                                   : PGS
  88. Muxing mode                              : zlib
  89. Codec ID                                 : S_HDMV/PGS
  90. Codec ID/Info                            : Picture based subtitle format used on BDs/HD-DVDs
  91. Duration                                 : 1 s 458 ms
  92. Bit rate                                 : 60.5 kb/s
  93. Count of elements                        : 2
  94. Stream size                              : 10.8 KiB (0%)
  95. Title                                    : French-PGS
  96. Language                                 : French
  97. Default                                  : No
  98. Forced                                   : No
  99. Original source medium                   : Blu-ray
  100. Text #3
  101. ID                                       : 6
  102. ID in the original source medium         : 4609 (0x1201)
  103. Format                                   : PGS
  104. Muxing mode                              : zlib
  105. Codec ID                                 : S_HDMV/PGS
  106. Codec ID/Info                            : Picture based subtitle format used on BDs/HD-DVDs
  107. Duration                                 : 1 h 42 min
  108. Bit rate                                 : 21.9 kb/s
  109. Count of elements                        : 2098
  110. Stream size                              : 16.1 MiB (0%)
  111. Title                                    : French-PGS
  112. Language                                 : French
  113. Default                                  : No
  114. Forced                                   : No
  115. Original source medium                   : Blu-ray
  116. Text #4
  117. ID                                       : 7
  118. ID in the original source medium         : 4610 (0x1202)
  119. Format                                   : PGS
  120. Muxing mode                              : zlib
  121. Codec ID                                 : S_HDMV/PGS
  122. Codec ID/Info                            : Picture based subtitle format used on BDs/HD-DVDs
  123. Duration                                 : 1 h 44 min
  124. Bit rate                                 : 27.5 kb/s
  125. Count of elements                        : 2408
  126. Stream size                              : 20.5 MiB (0%)
  127. Title                                    : French-PGS
  128. Language                                 : French
  129. Default                                  : No
  130. Forced                                   : No
  131. Original source medium                   : Blu-ray
  132. Text #5
  133. ID                                       : 8
  134. ID in the original source medium         : 4611 (0x1203)
  135. Format                                   : PGS
  136. Muxing mode                              : zlib
  137. Codec ID                                 : S_HDMV/PGS
  138. Codec ID/Info                            : Picture based subtitle format used on BDs/HD-DVDs
  139. Duration                                 : 1 h 44 min
  140. Bit rate                                 : 24.7 kb/s
  141. Count of elements                        : 2312
  142. Stream size                              : 18.4 MiB (0%)
  143. Title                                    : English-PGS
  144. Language                                 : English
  145. Default                                  : No
  146. Forced                                   : No
  147. Original source medium                   : Blu-ray
  148. Menu
  149. 00:00:00.000                             : en:Chapter 01
  150. 00:08:25.250                             : en:Chapter 02
  151. 00:16:35.125                             : en:Chapter 03
  152. 00:23:51.458                             : en:Chapter 04
  153. 00:31:20.416                             : en:Chapter 05
  154. 00:42:01.875                             : en:Chapter 06
  155. 00:53:36.083                             : en:Chapter 07
  156. 01:01:30.875                             : en:Chapter 08
  157. 01:09:36.375                             : en:Chapter 09
  158. 01:17:17.166                             : en:Chapter 10
  159. 01:25:27.916                             : en:Chapter 11
  160. 01:34:20.458                             : en:Chapter 12
复制代码





                                       
                                       

                                       
                                       
                                       




回复

使用道具 举报

懒得打字嘛,点击右侧快捷回复 【右侧内容,后台自定义】
您需要登录后才可以回帖 登录 | 立即加入

本版积分规则

Archiver|小黑屋| 蓝光电影网 |网站地图

Copyright © 2021 Comsenz Inc. Powered by 蓝光电影网

蓝光电影网

本站内容由用户自主分享和转载自互联网,转载目的在于传递更多信息,并不代表本网赞同其观点和对其真实性负责。

如有侵权、违反国家法律政策行为,请联系我们,我们会第一时间及时清除和处理!

举报反馈邮箱:[email protected]

快速回复 返回顶部 返回列表