找回密码

蓝光电影网

查看: 136|回复: 0

[UHD.HEVC] 杀人狂魔/剥头煞星 Maniac.2012.2160p.BluRay.REMUX.HEVC.DTS-HD.MA.5.1-FGT 43.43GB

[复制链接]
蓝光币
1084
发表于 2021-3-20 12:36:45 | 显示全部楼层 |阅读模式


◎译  名 杀人狂魔/剥头煞星/疯子
◎片  名 Maniac
◎年  代 2012
◎产  地 美国
◎类  别 悬疑 / 可骇 / 犯罪
◎语  言 英语
◎上映日期 2013-06-21(美国)
◎IMDb评分  6.1/10 from 35309 users
◎IMDb链接  https://www.imdb.com/title/tt2103217/
◎豆瓣评分 5.8/10 from 2350 users
◎豆瓣链接 https://movie.douban.com/subject/7046520/
◎片  长 89分钟
◎导  演 弗兰克·卡方 Franck Khalfoun
◎编  剧 亚历山大·阿嘉 Alexandre Aja / 格莱高利·莱瓦瑟 Grégory Levasseur
◎主  演 伊利亚·伍德 Elijah Wood
       阿美莉嘉·奥利沃 America Olivo
       诺拉·阿娜泽德尔 Nora Arnezeder
       莫嘉娜·斯奈普 Morgane Slemp
       莲妮·芭拉班 Liane Balaban
       布赖恩·艾姆斯 Brian Ames
       Steffinnie Phrommany
       阿卡巴尔·库尔塔 Akbar Kurtha
◎标  签 可骇 | 惊悚 | 美国 | 血腥 | 犯罪 | 2012 | 翻拍 | 悬疑
◎简  介


  母亲的意外丧生让弗兰克(伊利亚·伍德 Elijah Wood 饰)堕入了深深的疾苦当中,虽然母亲生前并非善类,甚至动辄就对弗兰克拳打脚踢,但在弗兰克的心目中,母亲的重要职位没有任何人可以取代。失恃之痛淤积在心中渐突变质,杀人成为了他唯一的宣泄路子,无数的妙龄少女成为了弗 兰克的刀下冤魂,不但如此,变态的弗兰克还将她们的头皮剥下来,置于家中欣赏。
  
  一次偶然中,弗兰克结识了摄影师安娜(卡罗琳·莫罗 Caroline Munro 饰),对于弗兰克来说,这是第一次也是唯一的一次,他没有将安娜视作猎物,而是一个善良热情的女人。可是,弗兰克心里里的兽性没法压制捋臂张拳,危险安娜似乎成为了没法避免的成果。
  1. Video
  2. ID                                       : 1
  3. ID in the original source medium         : 4113 (0x1011)
  4. Format                                   : HEVC
  5. Format/Info                              : High Efficiency Video Coding
  6. Format profile                           : Main [email protected]@High
  7. HDR format                               : SMPTE ST 2086, HDR10 compatible
  8. Codec ID                                 : V_MPEGH/ISO/HEVC
  9. Duration                                 : 1 h 28 min
  10. Bit rate                                 : 63.7 Mb/s
  11. Width                                    : 3 840 pixels
  12. Height                                   : 2 160 pixels
  13. Display aspect ratio                     : 16:9
  14. Frame rate mode                          : Constant
  15. Frame rate                               : 24.000 FPS
  16. Color space                              : YUV
  17. Chroma subsampling                       : 4:2:0 (Type 2)
  18. Bit depth                                : 10 bits
  19. Bits/(Pixel*Frame)                       : 0.320
  20. Stream size                              : 39.5 GiB (91%)
  21. Language                                 : English
  22. Default                                  : No
  23. Forced                                   : No
  24. Color range                              : Limited
  25. Color primaries                          : BT.2020
  26. Transfer characteristics                 : PQ
  27. Matrix coefficients                      : BT.2020 non-constant
  28. Mastering display color primaries        : BT.2020
  29. Mastering display luminance              : min: 0.0001 cd/m2, max: 1000 cd/m2
  30. Maximum Content Light Level              : 1000 cd/m2
  31. Maximum Frame-Average Light Level        : 180 cd/m2
  32. Original source medium                   : Blu-ray

  33. Audio #1
  34. ID                                       : 2
  35. ID in the original source medium         : 4353 (0x1101)
  36. Format                                   : DTS XLL
  37. Format/Info                              : Digital Theater Systems
  38. Commercial name                          : DTS-HD Master Audio
  39. Codec ID                                 : A_DTS
  40. Duration                                 : 1 h 28 min
  41. Bit rate mode                            : Variable
  42. Bit rate                                 : 1 899 kb/s
  43. Channel(s)                               : 6 channels
  44. Channel layout                           : C L R Ls Rs LFE
  45. Sampling rate                            : 48.0 kHz
  46. Frame rate                               : 93.750 FPS (512 SPF)
  47. Bit depth                                : 16 bits
  48. Compression mode                         : Lossless
  49. Stream size                              : 1.18 GiB (3%)
  50. Title                                    : DTS-HD MA 5.1
  51. Language                                 : English
  52. Default                                  : Yes
  53. Forced                                   : No
  54. Original source medium                   : Blu-ray

  55. Audio #2
  56. ID                                       : 3
  57. Format                                   : AC-3
  58. Format/Info                              : Audio Coding 3
  59. Commercial name                          : Dolby Digital
  60. Codec ID                                 : A_AC3
  61. Duration                                 : 1 h 28 min
  62. Bit rate mode                            : Constant
  63. Bit rate                                 : 640 kb/s
  64. Channel(s)                               : 6 channels
  65. Channel layout                           : L R C LFE Ls Rs
  66. Sampling rate                            : 48.0 kHz
  67. Frame rate                               : 31.250 FPS (1536 SPF)
  68. Compression mode                         : Lossy
  69. Stream size                              : 407 MiB (1%)
  70. Title                                    : DD 5.1
  71. Language                                 : English
  72. Service kind                             : Complete Main
  73. Default                                  : No
  74. Forced                                   : No

  75. Audio #3
  76. ID                                       : 4
  77. ID in the original source medium         : 4352 (0x1100)
  78. Format                                   : DTS XLL
  79. Format/Info                              : Digital Theater Systems
  80. Commercial name                          : DTS-HD Master Audio
  81. Codec ID                                 : A_DTS
  82. Duration                                 : 1 h 28 min
  83. Bit rate mode                            : Variable
  84. Bit rate                                 : 3 725 kb/s
  85. Channel(s)                               : 6 channels
  86. Channel layout                           : C L R Ls Rs LFE
  87. Sampling rate                            : 48.0 kHz
  88. Frame rate                               : 93.750 FPS (512 SPF)
  89. Bit depth                                : 24 bits
  90. Compression mode                         : Lossless
  91. Stream size                              : 2.31 GiB (5%)
  92. Title                                    : DTS-HD MA 5.1
  93. Language                                 : German
  94. Default                                  : No
  95. Forced                                   : No
  96. Original source medium                   : Blu-ray

  97. Text #1
  98. ID                                       : 5
  99. Format                                   : UTF-8
  100. Codec ID                                 : S_TEXT/UTF8
  101. Codec ID/Info                            : UTF-8 Plain Text
  102. Duration                                 : 1 h 22 min
  103. Bit rate                                 : 35 b/s
  104. Count of elements                        : 725
  105. Stream size                              : 21.7 KiB (0%)
  106. Title                                    : English-SRT
  107. Language                                 : English
  108. Default                                  : Yes
  109. Forced                                   : No

  110. Text #2
  111. ID                                       : 6
  112. ID in the original source medium         : 4768 (0x12A0)
  113. Format                                   : PGS
  114. Muxing mode                              : zlib
  115. Codec ID                                 : S_HDMV/PGS
  116. Codec ID/Info                            : Picture based subtitle format used on BDs/HD-DVDs
  117. Duration                                 : 1 h 28 min
  118. Bit rate                                 : 13.9 kb/s
  119. Count of elements                        : 1476
  120. Stream size                              : 8.74 MiB (0%)
  121. Title                                    : German-PGS
  122. Language                                 : German
  123. Default                                  : No
  124. Forced                                   : No
  125. Original source medium                   : Blu-ray

  126. Text #3
  127. ID                                       : 7
  128. ID in the original source medium         : 4769 (0x12A1)
  129. Format                                   : PGS
  130. Muxing mode                              : zlib
  131. Codec ID                                 : S_HDMV/PGS
  132. Codec ID/Info                            : Picture based subtitle format used on BDs/HD-DVDs
  133. Duration                                 : 45 min 38 s
  134. Bit rate                                 : 473 b/s
  135. Count of elements                        : 22
  136. Stream size                              : 158 KiB (0%)
  137. Title                                    : German-FORCED-PGS
  138. Language                                 : German
  139. Default                                  : No
  140. Forced                                   : No
  141. Original source medium                   : Blu-ray

  142. Menu
  143. 00:00:00.000                             : de:Chapter 01
  144. 00:08:59.000                             : de:Chapter 02
  145. 00:17:34.375                             : de:Chapter 03
  146. 00:26:33.333                             : de:Chapter 04
  147. 00:35:30.750                             : de:Chapter 05
  148. 00:44:20.083                             : de:Chapter 06
  149. 00:53:28.750                             : de:Chapter 07
  150. 01:02:23.166                             : de:Chapter 08
  151. 01:10:59.708                             : de:Chapter 09
  152. 01:20:10.000                             : de:Chapter 10
复制代码



                                       
                                       

                                       
                                       
                                       




回复

使用道具 举报

懒得打字嘛,点击右侧快捷回复 【右侧内容,后台自定义】
您需要登录后才可以回帖 登录 | 立即加入

本版积分规则

Archiver|小黑屋| 蓝光电影网 |网站地图

Copyright © 2021 Comsenz Inc. Powered by 蓝光电影网

蓝光电影网

本站内容由用户自主分享和转载自互联网,转载目的在于传递更多信息,并不代表本网赞同其观点和对其真实性负责。

如有侵权、违反国家法律政策行为,请联系我们,我们会第一时间及时清除和处理!

举报反馈邮箱:[email protected]

快速回复 返回顶部 返回列表