找回密码

蓝光电影网

查看: 242|回复: 0

[UHD.HEVC] 致命枷锁 Deadlock.1970.2160p.BluRay.REMUX.HEVC.DTS-HD.MA.1.0-FGT 55.38GB

[复制链接]
蓝光币
1084
发表于 2021-5-13 14:49:35 | 显示全部楼层 |阅读模式


◎译  名 致命桎梏
◎片  名 Deadlock
◎年  代 1970
◎产  地 西德
◎类  别 惊悚 / 西部
◎语  言 英语
◎上映日期 1970-10-15
◎IMDb评分  6.6/10 from 1016 users
◎IMDb链接  https://www.imdb.com/title/tt0065620/
◎豆瓣评分 /10 from 0 users
◎豆瓣链接 https://movie.douban.com/subject/3193954/
◎片  长 85 分钟
◎导  演 罗兰·克利克 Roland Klick
◎编  剧 罗兰·克利克 Roland Klick
◎主  演 Arnold Marquis
       安东尼·道森 Anthony Dawson
       Siegurd Fitzek
       马夸德·博姆 Marquard Bohm
       马里奥·阿多夫 Mario Adorf
       玛莎·拉本 Mascha Rabben
◎标  签 德国 | 西部 | 美国 | 惊悚 | RolandKlick | 德语 | 德国|德语电影 | 人都是逼出来的
◎简  介


  In 1970, it seems as if Roland Klick set out to emulate Sergio Leone's "The Good, The Bad, And The Ugly", mixing it with Michelangelo Antonioni's "Zabriskie Point" to create a modern Sauerkraut Western (without horses, but rather a truck and a car). The story stars three characters, Marquard Bohm as the "Kid" (The Good), Siegurd Fitzek as "Mr. Sunshine" (The Bad), and Mario Adorf (can be seen in Dario Argento's "The Bird With The Crystal Plumage" as the reclusive cat eating painter) as "Mr. Dump" (The Ugly) (who again plays a reclusive man who lives in a dump??). The story begins with the Kid, who has just pulled off a heist (with a bullet wound in the arm), and is carrying millions of dollars in a case. Wandering aimlessly through the sunbaked desert, (he finally passes out and is left for dead) until Mr. Dump drives along and finds him and the money. Once back at Mr. Dump's residence (a sort of abandoned junk yard), the Kid warns Mr. Dump, that Mr. Sunshine (who apparently is the ringleader of this heist) will be coming for his money. Thus begins the cat and mouse story, of who will get the case of money. Mr. Dump also has two neighbors, an older (and apparently sexually crazy) woman and her pretty (but feral) daughter (who is obviously sexually curious of the Kid).
  
  The film is set in (what looks to be) a wasteland desert, which could have been a forerunner for films like "A Boy And His Dog" and "Road Warrior". Yet the film maintains a complete Sergio Leone feel to it. You get all the great close ups of the characters sweating in the sun, and the typical double crossing that took place in his westerns. The Kid in this movie also kind of resembles Charles Bronson's character in Leone's other masterpiece "Once Upon A Time In The West". But on the flipside, this film also kind of reminded me of Antonioni's "Zabriskie Point", in the surreal desert filming. Also the use of Kraut Rock band "Can", who's music score, will remind one of Pink Floyd's music score for Antonioni's film. The inspired use of Can, as the music score was a great choice, because though at times it does remind you of Pink Floyd, it also reminds me of Ennio Morricone's music score as well. The Kid's theme song seems to be "Whiskey Man" by Can, and this reminds me of the way you hear that unforgettable Clint Eastwood whistling theme, or the accompanying harmonica for Charles Bronson. Can's score embodies both stylizations perfectly. The film is pretty obscure, and there was very little information, that I could find on it. But it's worth searching out if you have an interest in different cult type movies from the late sixties, or an interest in Can. But the pacing is a little uneasy and the finale was a tad unclimatic (yet somehow downbeat). Though it's a German production, the English dubbing will remind you of the Spaghetti Westerns as well. Cool, but very weird.
  1. Video
  2. ID                                       : 1
  3. ID in the original source medium         : 4113 (0x1011)
  4. Format                                   : HEVC
  5. Format/Info                              : High Efficiency Video Coding
  6. Format profile                           : Main [email protected]@High
  7. HDR format                               : SMPTE ST 2086, HDR10 compatible
  8. Codec ID                                 : V_MPEGH/ISO/HEVC
  9. Duration                                 : 1 h 33 min
  10. Bit rate                                 : 82.1 Mb/s
  11. Width                                    : 3 840 pixels
  12. Height                                   : 2 160 pixels
  13. Display aspect ratio                     : 16:9
  14. Frame rate mode                          : Constant
  15. Frame rate                               : 23.976 (24000/1001/189150) FPS
  16. Color space                              : YUV
  17. Chroma subsampling                       : 4:2:0 (Type 2)
  18. Bit depth                                : 10 bits
  19. Bits/(Pixel*Frame)                       : 0.413
  20. Stream size                              : 53.4 GiB (96%)
  21. Language                                 : English
  22. Default                                  : No
  23. Forced                                   : No
  24. Color range                              : Limited
  25. Color primaries                          : BT.2020
  26. Transfer characteristics                 : PQ
  27. Matrix coefficients                      : BT.2020 non-constant
  28. Mastering display color primaries        : BT.2020
  29. Mastering display luminance              : min: 0.0001 cd/m2, max: 1000 cd/m2
  30. Maximum Content Light Level              : 1000 cd/m2
  31. Maximum Frame-Average Light Level        : 400 cd/m2
  32. Original source medium                   : Blu-ray

  33. Audio #1
  34. ID                                       : 2
  35. ID in the original source medium         : 4353 (0x1101)
  36. Format                                   : DTS XLL
  37. Format/Info                              : Digital Theater Systems
  38. Commercial name                          : DTS-HD Master Audio
  39. Codec ID                                 : A_DTS
  40. Duration                                 : 1 h 33 min
  41. Bit rate mode                            : Variable
  42. Bit rate                                 : 1 095 kb/s
  43. Channel(s)                               : 1 channel
  44. Channel layout                           : C
  45. Sampling rate                            : 48.0 kHz
  46. Frame rate                               : 93.750 FPS (512 SPF)
  47. Bit depth                                : 24 bits
  48. Compression mode                         : Lossless
  49. Stream size                              : 729 MiB (1%)
  50. Title                                    : DTS-HD MA 1.0
  51. Language                                 : English
  52. Default                                  : Yes
  53. Forced                                   : No
  54. Original source medium                   : Blu-ray

  55. Audio #2
  56. ID                                       : 3
  57. Format                                   : AC-3
  58. Format/Info                              : Audio Coding 3
  59. Commercial name                          : Dolby Digital
  60. Codec ID                                 : A_AC3
  61. Duration                                 : 1 h 33 min
  62. Bit rate mode                            : Constant
  63. Bit rate                                 : 640 kb/s
  64. Channel(s)                               : 1 channel
  65. Channel layout                           : C
  66. Sampling rate                            : 48.0 kHz
  67. Frame rate                               : 31.250 FPS (1536 SPF)
  68. Compression mode                         : Lossy
  69. Stream size                              : 426 MiB (1%)
  70. Title                                    : DD 1.0
  71. Language                                 : English
  72. Service kind                             : Complete Main
  73. Default                                  : No
  74. Forced                                   : No

  75. Audio #3
  76. ID                                       : 4
  77. ID in the original source medium         : 4352 (0x1100)
  78. Format                                   : DTS XLL
  79. Format/Info                              : Digital Theater Systems
  80. Commercial name                          : DTS-HD Master Audio
  81. Codec ID                                 : A_DTS
  82. Duration                                 : 1 h 33 min
  83. Bit rate mode                            : Variable
  84. Bit rate                                 : 1 090 kb/s
  85. Channel(s)                               : 1 channel
  86. Channel layout                           : C
  87. Sampling rate                            : 48.0 kHz
  88. Frame rate                               : 93.750 FPS (512 SPF)
  89. Bit depth                                : 24 bits
  90. Compression mode                         : Lossless
  91. Stream size                              : 726 MiB (1%)
  92. Title                                    : DTS-HD MA 1.0
  93. Language                                 : German
  94. Default                                  : No
  95. Forced                                   : No
  96. Original source medium                   : Blu-ray

  97. Audio #4
  98. ID                                       : 5
  99. ID in the original source medium         : 4354 (0x1102)
  100. Format                                   : AC-3
  101. Format/Info                              : Audio Coding 3
  102. Commercial name                          : Dolby Digital
  103. Codec ID                                 : A_AC3
  104. Duration                                 : 1 h 33 min
  105. Bit rate mode                            : Constant
  106. Bit rate                                 : 224 kb/s
  107. Channel(s)                               : 2 channels
  108. Channel layout                           : L R
  109. Sampling rate                            : 48.0 kHz
  110. Frame rate                               : 31.250 FPS (1536 SPF)
  111. Compression mode                         : Lossy
  112. Stream size                              : 149 MiB (0%)
  113. Title                                    : DD 2.0
  114. Language                                 : German
  115. Service kind                             : Complete Main
  116. Default                                  : No
  117. Forced                                   : No
  118. Original source medium                   : Blu-ray

  119. Text #1
  120. ID                                       : 6
  121. Format                                   : UTF-8
  122. Codec ID                                 : S_TEXT/UTF8
  123. Codec ID/Info                            : UTF-8 Plain Text
  124. Duration                                 : 1 h 20 min
  125. Bit rate                                 : 20 b/s
  126. Count of elements                        : 503
  127. Stream size                              : 12.3 KiB (0%)
  128. Title                                    : English-SRT
  129. Language                                 : English
  130. Default                                  : Yes
  131. Forced                                   : No

  132. Text #2
  133. ID                                       : 7
  134. ID in the original source medium         : 4768 (0x12A0)
  135. Format                                   : PGS
  136. Muxing mode                              : zlib
  137. Codec ID                                 : S_HDMV/PGS
  138. Codec ID/Info                            : Picture based subtitle format used on BDs/HD-DVDs
  139. Duration                                 : 1 h 20 min
  140. Bit rate                                 : 14.4 kb/s
  141. Count of elements                        : 837
  142. Stream size                              : 8.31 MiB (0%)
  143. Title                                    : German-PGS
  144. Language                                 : German
  145. Default                                  : No
  146. Forced                                   : No
  147. Original source medium                   : Blu-ray

  148. Text #3
  149. ID                                       : 8
  150. ID in the original source medium         : 4769 (0x12A1)
  151. Format                                   : PGS
  152. Muxing mode                              : zlib
  153. Codec ID                                 : S_HDMV/PGS
  154. Codec ID/Info                            : Picture based subtitle format used on BDs/HD-DVDs
  155. Duration                                 : 1 h 20 min
  156. Bit rate                                 : 12.1 kb/s
  157. Count of elements                        : 838
  158. Stream size                              : 7.03 MiB (0%)
  159. Title                                    : English-PGS
  160. Language                                 : English
  161. Default                                  : No
  162. Forced                                   : No
  163. Original source medium                   : Blu-ray

  164. Text #4
  165. ID                                       : 9
  166. ID in the original source medium         : 4770 (0x12A2)
  167. Format                                   : PGS
  168. Muxing mode                              : zlib
  169. Codec ID                                 : S_HDMV/PGS
  170. Codec ID/Info                            : Picture based subtitle format used on BDs/HD-DVDs
  171. Duration                                 : 1 h 20 min
  172. Bit rate                                 : 13.7 kb/s
  173. Count of elements                        : 812
  174. Stream size                              : 7.95 MiB (0%)
  175. Title                                    : German-PGS
  176. Language                                 : German
  177. Default                                  : No
  178. Forced                                   : No
  179. Original source medium                   : Blu-ray

  180. Text #5
  181. ID                                       : 10
  182. ID in the original source medium         : 4771 (0x12A3)
  183. Format                                   : PGS
  184. Muxing mode                              : zlib
  185. Codec ID                                 : S_HDMV/PGS
  186. Codec ID/Info                            : Picture based subtitle format used on BDs/HD-DVDs
  187. Duration                                 : 1 h 20 min
  188. Bit rate                                 : 12.6 kb/s
  189. Count of elements                        : 814
  190. Stream size                              : 7.28 MiB (0%)
  191. Title                                    : English-PGS
  192. Language                                 : English
  193. Default                                  : No
  194. Forced                                   : No
  195. Original source medium                   : Blu-ray

  196. Text #6
  197. ID                                       : 11
  198. ID in the original source medium         : 4771 (0x12A3)
  199. Format                                   : PGS
  200. Muxing mode                              : zlib
  201. Codec ID                                 : S_HDMV/PGS
  202. Codec ID/Info                            : Picture based subtitle format used on BDs/HD-DVDs
  203. Duration                                 : 3 s 441 ms
  204. Bit rate                                 : 27.9 kb/s
  205. Count of elements                        : 2
  206. Stream size                              : 11.7 KiB (0%)
  207. Title                                    : English-FORCED-PGS
  208. Language                                 : English
  209. Default                                  : No
  210. Forced                                   : No
  211. Original source medium                   : Blu-ray

  212. Text #7
  213. ID                                       : 12
  214. ID in the original source medium         : 4772 (0x12A4)
  215. Format                                   : PGS
  216. Muxing mode                              : zlib
  217. Codec ID                                 : S_HDMV/PGS
  218. Codec ID/Info                            : Picture based subtitle format used on BDs/HD-DVDs
  219. Duration                                 : 1 h 31 min
  220. Bit rate                                 : 48.6 kb/s
  221. Count of elements                        : 1430
  222. Stream size                              : 32.0 MiB (0%)
  223. Title                                    : German-COMMENTARY-PGS
  224. Language                                 : German
  225. Default                                  : No
  226. Forced                                   : No
  227. Original source medium                   : Blu-ray

  228. Text #8
  229. ID                                       : 13
  230. ID in the original source medium         : 4773 (0x12A5)
  231. Format                                   : PGS
  232. Muxing mode                              : zlib
  233. Codec ID                                 : S_HDMV/PGS
  234. Codec ID/Info                            : Picture based subtitle format used on BDs/HD-DVDs
  235. Duration                                 : 1 h 31 min
  236. Bit rate                                 : 41.5 kb/s
  237. Count of elements                        : 1430
  238. Stream size                              : 27.3 MiB (0%)
  239. Title                                    : English-COMMENTARY-PGS
  240. Language                                 : English
  241. Default                                  : No
  242. Forced                                   : No
  243. Original source medium                   : Blu-ray

  244. Menu
  245. 00:00:00.000                             : Chapter 01
  246. 00:05:08.808                             : Chapter 02
  247. 00:09:37.868                             : Chapter 03
  248. 00:15:56.997                             : Chapter 04
  249. 00:22:16.793                             : Chapter 05
  250. 00:28:38.216                             : Chapter 06
  251. 00:33:37.265                             : Chapter 07
  252. 00:41:11.427                             : Chapter 08
  253. 00:47:46.905                             : Chapter 09
  254. 00:53:51.728                             : Chapter 10
  255. 01:02:55.980                             : Chapter 11
  256. 01:10:38.943                             : Chapter 12
  257. 01:16:46.101                             : Chapter 13
  258. 01:20:57.769                             : Chapter 14
  259. 01:25:30.750                             : Chapter 15
复制代码




                                       
                                       

                                       
                                       
                                       




回复

使用道具 举报

懒得打字嘛,点击右侧快捷回复 【右侧内容,后台自定义】
您需要登录后才可以回帖 登录 | 立即加入

本版积分规则

Archiver|小黑屋| 蓝光电影网 |网站地图

Copyright © 2021 Comsenz Inc. Powered by 蓝光电影网

蓝光电影网

本站内容由用户自主分享和转载自互联网,转载目的在于传递更多信息,并不代表本网赞同其观点和对其真实性负责。

如有侵权、违反国家法律政策行为,请联系我们,我们会第一时间及时清除和处理!

举报反馈邮箱:[email protected]

快速回复 返回顶部 返回列表