找回密码

蓝光电影网

查看: 241|回复: 0

[UHD.HEVC] 混沌行走/噪反 Chaos.Walking.2021.2160p.BluRay.REMUX.HEVC.DTS-HD.MA.TrueHD.7.1.Atmos-FGT 52.57GB

[复制链接]
蓝光币
1084
发表于 2021-5-20 09:08:58 | 显示全部楼层 |阅读模式
[img][/img]

◎译  名 混沌行走/噪反(台)/混沌安步/读心哗变(港)
◎片  名 Chaos Walking
◎年  代 2021
◎产  地 美国,加拿大
◎类  别 行动 / 科幻 / 冒险
◎语  言 英语
◎上映日期 2021(中国大陆) / 2021-03-05(美国)
◎豆瓣评分 5.2/10 from 2969 users
◎豆瓣链接 https://movie.douban.com/subject/6874475/
◎片  长 109分钟
◎导  演 道格·里曼 Doug Liman
◎编  剧 帕特里克·内斯 Patrick Ness / 克里斯托弗·D·福特 Christopher D. Ford / 林赛·比尔 Lindsey Beer / 约翰·李·汉考克 John Lee Hancock / 加里·斯皮内利 Gary Spinelli / 安德鲁·戈特利布 Andrew Gottlieb / 大卫·罗森 David Rosen
◎主  演 汤姆·赫兰德 Tom Holland
       黛西·雷德利 Daisy Ridley
       德米安·比齐尔 Demián Bichir
       大卫·奥伊罗 David Oyelowo
       科特·萨特 Kurt Sutter
       辛西娅·艾莉佛 Cynthia Erivo
       贝瑟妮·安妮·林德 Bethany Anne Lind
       麦斯·米科尔森 Mads Mikkelsen
       尼克·乔纳斯 Nick Jonas
       雷·迈克金农 Ray McKinnon
       文森特·莱克莱尔 Vincent Leclerc
       布兰·克洛卡雷尔 Blane Crockarell
       蒂龙·本斯金 Tyrone Benskin
       弗兰克·方丹 Frank Fontaine
       帕特里克·加洛 Patrick Garrow
       玛丽莲·迪恩-罗比齐 Mylène Dinh-Robic
       朱利安·瑞钦斯 Julian Richings
       迈克尔·戴森 Michael Dyson
       马克斯韦尔·麦卡比-洛克斯 Maxwell McCabe-Lokos
       迈克尔·亚穆什 Michael Yarmush
       布莱恩·亚历山大 Brian Alexander
       奥妮克·阿德莉 Olunike Adeliyi
       克劳迪娅·贝索 Claudia Besso
       奥斯卡·贾恩那达 óscar Jaenada
       塔拉·尼科迪莫 Tara Nicodemo
       哈里森·奥斯特菲尔德 Harrison Osterfield
       兰博基尼 Lamborghini
       维斯顿 Wiston
◎标  签 科幻 | 美国 | 2021 | 冒险 | 小说改编 | 青春 | 反乌托邦 | 剧情
◎简  介


  人类在与地球类似的悠远外星建立了新故里,但这个星球上却有一种病毒,汉子传染后可以听到其他人和动物的心声,每个汉子脑子里的想法都能被他人听到,人与人之间不存在隐私,新星球上的普伦提司镇的汉子们就不胜忍受自己的想法被人闻声。
  
  托德·赫维特(汤姆·赫兰德 饰)是诞生于这座小镇的 男孩,他的认知中小镇没有女人是由于该星球土著居民蓝光兽故里被人类加害时故意让人类传染了乐音病毒,他们还杀光了一切女性。托德对此深信不疑,直到他碰到一个女孩。
  
  托德在小镇四周的森林里碰到了一个叫维奥拉(黛西·雷德利 饰)的女孩,她来自悠远的地球,她的飞船因故坠毁在森林里,普伦提司镇的镇长在得知这个消息后立即展开对他俩的追杀,托德为了庇护女孩维奥拉只好一路出逃,起头了一段他意想不到且危机重重的星球冒险。
  1. Video
  2. ID                                       : 1
  3. ID in the original source medium         : 4113 (0x1011)
  4. Format                                   : HEVC
  5. Format/Info                              : High Efficiency Video Coding
  6. Format profile                           : Main [email protected]@High
  7. HDR format                               : SMPTE ST 2086, HDR10 compatible
  8. Codec ID                                 : V_MPEGH/ISO/HEVC
  9. Duration                                 : 1 h 48 min
  10. Bit rate                                 : 58.9 Mb/s
  11. Width                                    : 3 840 pixels
  12. Height                                   : 2 160 pixels
  13. Display aspect ratio                     : 16:9
  14. Frame rate mode                          : Constant
  15. Frame rate                               : 23.976 (24000/1001/189150) FPS
  16. Color space                              : YUV
  17. Chroma subsampling                       : 4:2:0 (Type 2)
  18. Bit depth                                : 10 bits
  19. Bits/(Pixel*Frame)                       : 0.296
  20. Stream size                              : 44.8 GiB (85%)
  21. Language                                 : English
  22. Default                                  : No
  23. Forced                                   : No
  24. Color range                              : Limited
  25. Color primaries                          : BT.2020
  26. Transfer characteristics                 : PQ
  27. Matrix coefficients                      : BT.2020 non-constant
  28. Mastering display color primaries        : Display P3
  29. Mastering display luminance              : min: 0.0010 cd/m2, max: 1000 cd/m2
  30. Maximum Content Light Level              : 1000 cd/m2
  31. Maximum Frame-Average Light Level        : 248 cd/m2
  32. Original source medium                   : Blu-ray

  33. Audio #1
  34. ID                                       : 2
  35. ID in the original source medium         : 4352 (0x1100)
  36. Format                                   : MLP FBA 16-ch
  37. Format/Info                              : Meridian Lossless Packing FBA with 16-channel presentation
  38. Commercial name                          : Dolby TrueHD with Dolby Atmos
  39. Codec ID                                 : A_TRUEHD
  40. Duration                                 : 1 h 48 min
  41. Bit rate mode                            : Variable
  42. Bit rate                                 : 4 405 kb/s
  43. Maximum bit rate                         : 7 932 kb/s
  44. Channel(s)                               : 8 channels
  45. Channel layout                           : L R C LFE Ls Rs Lb Rb
  46. Sampling rate                            : 48.0 kHz
  47. Frame rate                               : 1 200.000 FPS (40 SPF)
  48. Bit depth                                : 24 bits
  49. Compression mode                         : Lossless
  50. Stream size                              : 3.35 GiB (6%)
  51. Title                                    : TrueHD 7.1 Atmos
  52. Language                                 : English
  53. Default                                  : Yes
  54. Forced                                   : No
  55. Original source medium                   : Blu-ray
  56. Number of dynamic objects                : 11
  57. Bed channel count                        : 1 channel
  58. Bed channel configuration                : LFE

  59. Audio #2
  60. ID                                       : 3
  61. Format                                   : DTS XLL
  62. Format/Info                              : Digital Theater Systems
  63. Commercial name                          : DTS-HD Master Audio
  64. Codec ID                                 : A_DTS
  65. Duration                                 : 1 h 48 min
  66. Bit rate mode                            : Variable
  67. Bit rate                                 : 4 051 kb/s
  68. Channel(s)                               : 8 channels
  69. Channel layout                           : C L R LFE Lb Rb Lss Rss
  70. Sampling rate                            : 48.0 kHz
  71. Frame rate                               : 93.750 FPS (512 SPF)
  72. Bit depth                                : 24 bits
  73. Compression mode                         : Lossless
  74. Stream size                              : 3.08 GiB (6%)
  75. Title                                    : DTS-HD MA 7.1
  76. Language                                 : English
  77. Default                                  : No
  78. Forced                                   : No

  79. Audio #3
  80. ID                                       : 4
  81. ID in the original source medium         : 4352 (0x1100)
  82. Format                                   : AC-3
  83. Format/Info                              : Audio Coding 3
  84. Commercial name                          : Dolby Digital
  85. Format settings                          : Dolby Surround EX
  86. Codec ID                                 : A_AC3
  87. Duration                                 : 1 h 48 min
  88. Bit rate mode                            : Constant
  89. Bit rate                                 : 640 kb/s
  90. Channel(s)                               : 6 channels
  91. Channel layout                           : L R C LFE Ls Rs
  92. Sampling rate                            : 48.0 kHz
  93. Frame rate                               : 31.250 FPS (1536 SPF)
  94. Compression mode                         : Lossy
  95. Stream size                              : 499 MiB (1%)
  96. Title                                    : DD 5.1
  97. Language                                 : English
  98. Service kind                             : Complete Main
  99. Default                                  : No
  100. Forced                                   : No
  101. Original source medium                   : Blu-ray

  102. Audio #4
  103. ID                                       : 5
  104. ID in the original source medium         : 4353 (0x1101)
  105. Format                                   : AC-3
  106. Format/Info                              : Audio Coding 3
  107. Commercial name                          : Dolby Digital
  108. Codec ID                                 : A_AC3
  109. Duration                                 : 1 h 48 min
  110. Bit rate mode                            : Constant
  111. Bit rate                                 : 192 kb/s
  112. Channel(s)                               : 2 channels
  113. Channel layout                           : L R
  114. Sampling rate                            : 48.0 kHz
  115. Frame rate                               : 31.250 FPS (1536 SPF)
  116. Compression mode                         : Lossy
  117. Stream size                              : 150 MiB (0%)
  118. Title                                    : DD 2.0
  119. Language                                 : English
  120. Service kind                             : Complete Main
  121. Default                                  : No
  122. Forced                                   : No
  123. Original source medium                   : Blu-ray

  124. Audio #5
  125. ID                                       : 6
  126. ID in the original source medium         : 4354 (0x1102)
  127. Format                                   : AC-3
  128. Format/Info                              : Audio Coding 3
  129. Commercial name                          : Dolby Digital
  130. Codec ID                                 : A_AC3
  131. Duration                                 : 1 h 48 min
  132. Bit rate mode                            : Constant
  133. Bit rate                                 : 640 kb/s
  134. Channel(s)                               : 6 channels
  135. Channel layout                           : L R C LFE Ls Rs
  136. Sampling rate                            : 48.0 kHz
  137. Frame rate                               : 31.250 FPS (1536 SPF)
  138. Compression mode                         : Lossy
  139. Stream size                              : 499 MiB (1%)
  140. Title                                    : DD 5.1
  141. Language                                 : Spanish
  142. Service kind                             : Complete Main
  143. Default                                  : No
  144. Forced                                   : No
  145. Original source medium                   : Blu-ray

  146. Audio #6
  147. ID                                       : 7
  148. ID in the original source medium         : 4355 (0x1103)
  149. Format                                   : AC-3
  150. Format/Info                              : Audio Coding 3
  151. Commercial name                          : Dolby Digital
  152. Codec ID                                 : A_AC3
  153. Duration                                 : 1 h 48 min
  154. Bit rate mode                            : Constant
  155. Bit rate                                 : 192 kb/s
  156. Channel(s)                               : 2 channels
  157. Channel layout                           : L R
  158. Sampling rate                            : 48.0 kHz
  159. Frame rate                               : 31.250 FPS (1536 SPF)
  160. Compression mode                         : Lossy
  161. Stream size                              : 150 MiB (0%)
  162. Title                                    : DD 2.0
  163. Language                                 : English
  164. Service kind                             : Complete Main
  165. Default                                  : No
  166. Forced                                   : No
  167. Original source medium                   : Blu-ray

  168. Text #1
  169. ID                                       : 8
  170. Format                                   : UTF-8
  171. Codec ID                                 : S_TEXT/UTF8
  172. Codec ID/Info                            : UTF-8 Plain Text
  173. Duration                                 : 1 h 37 min
  174. Bit rate                                 : 53 b/s
  175. Count of elements                        : 1453
  176. Stream size                              : 38.1 KiB (0%)
  177. Title                                    : English-SRT
  178. Language                                 : English
  179. Default                                  : Yes
  180. Forced                                   : No

  181. Text #2
  182. ID                                       : 9
  183. ID in the original source medium         : 4768 (0x12A0)
  184. Format                                   : PGS
  185. Muxing mode                              : zlib
  186. Codec ID                                 : S_HDMV/PGS
  187. Codec ID/Info                            : Picture based subtitle format used on BDs/HD-DVDs
  188. Duration                                 : 1 h 37 min
  189. Bit rate                                 : 41.6 kb/s
  190. Count of elements                        : 3436
  191. Stream size                              : 29.0 MiB (0%)
  192. Title                                    : English-PGS
  193. Language                                 : English
  194. Default                                  : No
  195. Forced                                   : No
  196. Original source medium                   : Blu-ray

  197. Text #3
  198. ID                                       : 10
  199. ID in the original source medium         : 4769 (0x12A1)
  200. Format                                   : PGS
  201. Muxing mode                              : zlib
  202. Codec ID                                 : S_HDMV/PGS
  203. Codec ID/Info                            : Picture based subtitle format used on BDs/HD-DVDs
  204. Duration                                 : 1 h 38 min
  205. Bit rate                                 : 33.6 kb/s
  206. Count of elements                        : 2628
  207. Stream size                              : 23.7 MiB (0%)
  208. Title                                    : Spanish-PGS
  209. Language                                 : Spanish
  210. Default                                  : No
  211. Forced                                   : No
  212. Original source medium                   : Blu-ray

  213. Menu
  214. 00:00:00.000                             : Chapter 01
  215. 00:05:16.858                             : Chapter 02
  216. 00:13:20.299                             : Chapter 03
  217. 00:20:18.634                             : Chapter 04
  218. 00:27:39.866                             : Chapter 05
  219. 00:35:54.110                             : Chapter 06
  220. 00:39:41.253                             : Chapter 07
  221. 00:45:45.409                             : Chapter 08
  222. 00:51:22.204                             : Chapter 09
  223. 00:56:34.557                             : Chapter 10
  224. 01:01:40.321                             : Chapter 11
  225. 01:07:13.446                             : Chapter 12
  226. 01:15:41.995                             : Chapter 13
  227. 01:22:30.487                             : Chapter 14
  228. 01:30:43.938                             : Chapter 15
  229. 01:36:45.800                             : Chapter 16
复制代码




                                       
                                       

                                       
                                       
                                       




回复

使用道具 举报

懒得打字嘛,点击右侧快捷回复 【右侧内容,后台自定义】
您需要登录后才可以回帖 登录 | 立即加入

本版积分规则

Archiver|小黑屋| 蓝光电影网 |网站地图

Copyright © 2021 Comsenz Inc. Powered by 蓝光电影网

蓝光电影网

本站内容由用户自主分享和转载自互联网,转载目的在于传递更多信息,并不代表本网赞同其观点和对其真实性负责。

如有侵权、违反国家法律政策行为,请联系我们,我们会第一时间及时清除和处理!

举报反馈邮箱:[email protected]

快速回复 返回顶部 返回列表