找回密码

蓝光电影网

查看: 85|回复: 0

[2160p] 梦之安魂曲/噩梦挽歌 Requiem.for.a.Dream.2000.2160p.BluRay.x265.10bit.SDR.DTS-HD.MA.TrueHD.7.1.Atmos-SWTYBLZ 47.42GB

[复制链接]
蓝光币
1084
发表于 2020-11-10 20:05:16 | 显示全部楼层 |阅读模式


◎译  名 梦之安魂曲/噩梦挽歌(台)/梦的挽歌/迷上瘾(港)
◎片  名 Requiem for a Dream
◎年  代 2000
◎产  地 美国
◎类  别 剧情
◎语  言 英语
◎上映日期 2000-05-14(戛纳电影节) / 2000-12-15(美国)
◎IMDb评分  8.3/10 from 755688 users
◎IMDb链接  https://www.imdb.com/title/tt0180093/
◎豆瓣评分 8.7/10 from 167506 users
◎豆瓣链接 https://movie.douban.com/subject/1292270/
◎片  长 102分钟
◎导  演 达伦·阿伦诺夫斯基 Darren Aronofsky
◎编  剧 小胡伯特·塞尔比 Hubert Selby Jr. / 达伦·阿伦诺夫斯基 Darren Aronofsky
◎主  演 艾伦·伯斯汀 Ellen Burstyn
       杰瑞德·莱托 Jared Leto
       詹妮弗·康纳利 Jennifer Connelly
       马龙·韦恩斯 Marlon Wayans
       克里斯托弗·麦克唐纳 Christopher McDonald
       露易丝·拉塞尔 Louise Lasser
       玛西娅·让·库尔茨 Marcia Jean Kurtz
       珍妮特·萨诺 Janet Sarno
       苏珊妮·谢泼德 Suzanne Shepherd
       夏洛特·阿罗诺夫斯基 Charlotte Aronofsky
       马克·马戈利斯 Mark Margolis
       迈克尔·卡切克 Michael Kaycheck
       杰克·奥康耐 Jack O'Connell
       斯科特·富兰克林 Scott Franklin
       亚伯拉罕·阿罗诺夫斯基 Abraham Aronofsky
       欧嘉·梅雷迪斯 Olga Merediz
       本·申克曼 Ben Shenkman
       凯斯·大卫 Keith David
       迪伦·贝克 Dylan Baker
       肖恩·奥哈根 Shaun O'Hagan
       比尔·布尔 Bill Buell
       吉米·雷·威克斯 Jimmie Ray Weeks
       斯坦利·B·赫尔曼 Stanley B. Herman
       达伦·阿伦诺夫斯基 Darren Aronofsky
       肖恩·格莱特 Sean Gullette
◎标  签 黑色 | 毒品 | 美国 | 剧情 | 人性 | 美国电影 | Cult | 2000
◎简  介


  哈瑞(杰瑞德·莱托 Jared Leto 饰)和玛丽安(詹妮弗·康纳利 Jennifer Connelly 饰)相互相爱,胡想着开个打扮店,胡想着有个美好的明天。但是他们都离不开毒品,并想着以销毒赚得第一桶金。哈瑞的母亲是个完全的电视迷,最大的胡想是上电视,为此掉臂年老吞食减肥药。由于药品里的毒品成份,她渐渐上了瘾。哈瑞的朋友狄龙(马龙·韦恩斯 Marlon Wayans 饰)一样是个瘾君子,为了挣大钱加入了黑社会。为了胡想,他们尽力着,却一步步深陷毒品难以自拔。 哈瑞的胳膊因注射毒品传染而被割去;玛丽安为了毒品出售精神和自负;哈瑞的母亲终极住进了精神医院受尽熬煎;狄龙锒铛入狱。当视野变得模糊,梦在悠远处呼唤,丢失的人该以怎样的姿势抚慰自己的灵魂。
◎获奖情况
  第73届奥斯卡金像奖 ?(2001)
  最好女配角(提名) 艾伦·伯斯汀
  
  第58届金球奖 ?(2001)
  电影类剧情片最好女配角(提名) 艾伦·伯斯汀
  
  第1届美国电影学会奖 ?(2000)
  年度佳片
  1. Video
  2. ID                                       : 1
  3. Format                                   : HEVC
  4. Format/Info                              : High Efficiency Video Coding
  5. Format profile                           : Main [email protected]@High
  6. Codec ID                                 : V_MPEGH/ISO/HEVC
  7. Duration                                 : 1 h 41 min
  8. Bit rate                                 : 57.9 Mb/s
  9. Width                                    : 3 840 pixels
  10. Height                                   : 2 076 pixels
  11. Display aspect ratio                     : 1.85:1
  12. Frame rate mode                          : Constant
  13. Frame rate                               : 23.976 (24000/1001/189150) FPS
  14. Color space                              : YUV
  15. Chroma subsampling                       : 4:2:0
  16. Bit depth                                : 10 bits
  17. Bits/(Pixel*Frame)                       : 0.303
  18. Stream size                              : 41.0 GiB (87%)
  19. Title                                    : Requiem.for.a.Dream.2000.2160p.BluRay.x265.10bit.SDR.DTS-HD.MA.TrueHD.7.1.Atmos-SWTYBLZ
  20. Writing library                          : x265 3.0ed72af837053:[Windows][GCC 8.2.0][64 bit] 10bit
  21. Encoding settings                        : cpuid=1111039 / frame-threads=6 / numa-pools=40 / wpp / no-pmode / no-pme / no-psnr / no-ssim / log-level=2 / input-csp=1 / input-res=3840x2076 / interlace=0 / total-frames=146040 / level-idc=51 / high-tier=1 / uhd-bd=0 / ref=3 / no-allow-non-conformance / repeat-headers / annexb / aud / hrd / info / hash=0 / no-temporal-layers / no-open-gop / min-keyint=1 / keyint=24 / gop-lookahead=0 / bframes=4 / b-adapt=2 / b-pyramid / bframe-bias=0 / rc-lookahead=25 / lookahead-slices=4 / scenecut=40 / radl=0 / no-splice / no-intra-refresh / ctu=64 / min-cu-size=8 / no-rect / no-amp / max-tu-size=32 / tu-inter-depth=1 / tu-intra-depth=1 / limit-tu=0 / rdoq-level=0 / dynamic-rd=0.00 / no-ssim-rd / signhide / no-tskip / nr-intra=0 / nr-inter=0 / no-constrained-intra / strong-intra-smoothing / max-merge=2 / limit-refs=3 / no-limit-modes / me=1 / subme=2 / merange=57 / temporal-mvp / weightp / no-weightb / no-analyze-src-pics / deblock=0:0 / no-sao / no-sao-non-deblock / rd=3 / no-early-skip / rskip / no-fast-intra / no-tskip-fast / no-cu-lossless / no-b-intra / no-splitrd-skip / rdpenalty=0 / psy-rd=2.00 / psy-rdoq=0.00 / no-rd-refine / no-lossless / cbqpoffs=0 / crqpoffs=0 / rc=crf / crf=16.0 / qcomp=0.60 / qpstep=4 / stats-write=0 / stats-read=0 / vbv-maxrate=160000 / vbv-bufsize=160000 / vbv-init=0.9 / crf-max=0.0 / crf-min=0.0 / ipratio=1.40 / pbratio=1.30 / aq-mode=1 / aq-strength=1.00 / cutree / zone-count=0 / no-strict-cbr / qg-size=32 / no-rc-grain / qpmax=69 / qpmin=0 / no-const-vbv / sar=1 / overscan=0 / videoformat=5 / range=0 / colorprim=2 / transfer=2 / colormatrix=2 / chromaloc=0 / display-window=0 / max-cll=0,0 / min-luma=0 / max-luma=1023 / log2-max-poc-lsb=8 / vui-timing-info / vui-hrd-info / slices=1 / opt-qp-pps / opt-ref-list-length-pps / no-multi-pass-opt-rps / scenecut-bias=0.05 / no-opt-cu-delta-qp / no-aq-motion / no-hdr / no-hdr-opt / no-dhdr10-opt / no-idr-recovery-sei / analysis-reuse-level=5 / scale-factor=0 / refine-intra=0 / refine-inter=0 / refine-mv=0 / refine-ctu-distortion=0 / no-limit-sao / ctu-info=0 / no-lowpass-dct / refine-analysis-type=0 / copy-pic=1 / max-ausize-factor=1.0 / no-dynamic-refine / no-single-sei / no-hevc-aq / qp-adaptation-range=1.00
  22. Language                                 : English
  23. Default                                  : Yes
  24. Forced                                   : No
  25. Audio #1
  26. ID                                       : 2
  27. Format                                   : MLP FBA 16-ch
  28. Format/Info                              : Meridian Lossless Packing FBA with 16-channel presentation
  29. Commercial name                          : Dolby TrueHD with Dolby Atmos
  30. Codec ID                                 : A_TRUEHD
  31. Duration                                 : 1 h 41 min
  32. Bit rate mode                            : Variable
  33. Bit rate                                 : 3 831 kb/s
  34. Maximum bit rate                         : 6 300 kb/s
  35. Channel(s)                               : 8 channels
  36. Channel layout                           : L R C LFE Ls Rs Lb Rb
  37. Sampling rate                            : 48.0 kHz
  38. Frame rate                               : 1 200.000 FPS (40 SPF)
  39. Compression mode                         : Lossless
  40. Stream size                              : 2.72 GiB (6%)
  41. Title                                    : Requiem.for.a.Dream.2000.2160p.BluRay.x265.10bit.SDR.DTS-HD.MA.TrueHD.7.1.Atmos-SWTYBLZ
  42. Language                                 : English
  43. Default                                  : Yes
  44. Forced                                   : No
  45. Number of dynamic objects                : 15
  46. Bed channel count                        : 1 channel
  47. Bed channel configuration                : LFE
  48. Audio #2
  49. ID                                       : 3
  50. Format                                   : DTS XLL
  51. Format/Info                              : Digital Theater Systems
  52. Commercial name                          : DTS-HD Master Audio
  53. Codec ID                                 : A_DTS
  54. Duration                                 : 1 h 41 min
  55. Bit rate mode                            : Variable
  56. Bit rate                                 : 4 091 kb/s
  57. Channel(s)                               : 8 channels
  58. Channel layout                           : C L R LFE Lb Rb Lss Rss
  59. Sampling rate                            : 48.0 kHz
  60. Frame rate                               : 93.750 FPS (512 SPF)
  61. Bit depth                                : 24 bits
  62. Compression mode                         : Lossless
  63. Stream size                              : 2.90 GiB (6%)
  64. Title                                    : Requiem.for.a.Dream.2000.2160p.BluRay.x265.10bit.SDR.DTS-HD.MA.TrueHD.7.1.Atmos-SWTYBLZ
  65. Language                                 : English
  66. Default                                  : No
  67. Forced                                   : No
  68. Audio #3
  69. ID                                       : 4
  70. Format                                   : AC-3
  71. Format/Info                              : Audio Coding 3
  72. Commercial name                          : Dolby Digital
  73. Codec ID                                 : A_AC3
  74. Duration                                 : 1 h 41 min
  75. Bit rate mode                            : Constant
  76. Bit rate                                 : 640 kb/s
  77. Channel(s)                               : 6 channels
  78. Channel layout                           : L R C LFE Ls Rs
  79. Sampling rate                            : 48.0 kHz
  80. Frame rate                               : 31.250 FPS (1536 SPF)
  81. Compression mode                         : Lossy
  82. Stream size                              : 465 MiB (1%)
  83. Title                                    : Requiem.for.a.Dream.2000.2160p.BluRay.x265.10bit.SDR.DTS-HD.MA.TrueHD.7.1.Atmos-SWTYBLZ
  84. Language                                 : English
  85. Service kind                             : Complete Main
  86. Default                                  : No
  87. Forced                                   : No
  88. Text #1
  89. ID                                       : 5
  90. Format                                   : UTF-8
  91. Codec ID                                 : S_TEXT/UTF8
  92. Codec ID/Info                            : UTF-8 Plain Text
  93. Duration                                 : 1 h 36 min
  94. Bit rate                                 : 51 b/s
  95. Count of elements                        : 1122
  96. Stream size                              : 36.3 KiB (0%)
  97. Title                                    : English-SRT
  98. Language                                 : English
  99. Default                                  : Yes
  100. Forced                                   : No
  101. Text #2
  102. ID                                       : 6
  103. Format                                   : PGS
  104. Muxing mode                              : zlib
  105. Codec ID                                 : S_HDMV/PGS
  106. Codec ID/Info                            : Picture based subtitle format used on BDs/HD-DVDs
  107. Duration                                 : 1 h 36 min
  108. Bit rate                                 : 30.4 kb/s
  109. Count of elements                        : 2286
  110. Stream size                              : 21.0 MiB (0%)
  111. Title                                    : English-PGS
  112. Language                                 : English
  113. Default                                  : No
  114. Forced                                   : No
  115. Text #3
  116. ID                                       : 7
  117. Format                                   : PGS
  118. Muxing mode                              : zlib
  119. Codec ID                                 : S_HDMV/PGS
  120. Codec ID/Info                            : Picture based subtitle format used on BDs/HD-DVDs
  121. Duration                                 : 1 h 36 min
  122. Bit rate                                 : 36.0 kb/s
  123. Count of elements                        : 2742
  124. Stream size                              : 24.9 MiB (0%)
  125. Title                                    : English-SDH-PGS
  126. Language                                 : English
  127. Default                                  : No
  128. Forced                                   : No
  129. Text #4
  130. ID                                       : 8
  131. Format                                   : PGS
  132. Muxing mode                              : zlib
  133. Codec ID                                 : S_HDMV/PGS
  134. Codec ID/Info                            : Picture based subtitle format used on BDs/HD-DVDs
  135. Duration                                 : 1 h 36 min
  136. Bit rate                                 : 37.8 kb/s
  137. Count of elements                        : 1566
  138. Stream size                              : 26.1 MiB (0%)
  139. Title                                    : German-PGS
  140. Language                                 : German
  141. Default                                  : No
  142. Forced                                   : No
  143. Text #5
  144. ID                                       : 9
  145. Format                                   : PGS
  146. Muxing mode                              : zlib
  147. Codec ID                                 : S_HDMV/PGS
  148. Codec ID/Info                            : Picture based subtitle format used on BDs/HD-DVDs
  149. Duration                                 : 1 h 36 min
  150. Bit rate                                 : 18.7 kb/s
  151. Count of elements                        : 1838
  152. Stream size                              : 12.9 MiB (0%)
  153. Title                                    : Korean-PGS
  154. Language                                 : Korean
  155. Default                                  : No
  156. Forced                                   : No
  157. Text #6
  158. ID                                       : 10
  159. Format                                   : PGS
  160. Muxing mode                              : zlib
  161. Codec ID                                 : S_HDMV/PGS
  162. Codec ID/Info                            : Picture based subtitle format used on BDs/HD-DVDs
  163. Duration                                 : 1 h 40 min
  164. Bit rate                                 : 25.9 kb/s
  165. Count of elements                        : 2346
  166. Stream size                              : 18.6 MiB (0%)
  167. Title                                    : Spanish-PGS
  168. Language                                 : Spanish
  169. Default                                  : No
  170. Forced                                   : No
  171. Menu
  172. 00:00:00.000                             : en:Tuning Up
  173. 00:05:30.705                             : en:Dreams
  174. 00:09:06.629                             : en:The Winner
  175. 00:14:00.882                             : en:Juice
  176. 00:19:01.057                             : en:Thinking Thin
  177. 00:23:35.039                             : en:Dynamite
  178. 00:27:33.318                             : en:A Date
  179. 00:29:46.952                             : en:$
  180. 00:32:46.965                             : en:Sweet Alice
  181. 00:37:16.901                             : en:Hope
  182. 00:49:24.211                             : en:Hunger Cries
  183. 00:56:24.631                             : en:Apart
  184. 01:06:05.420                             : en:Fury
  185. 01:13:24.775                             : en:A Whack
  186. 01:21:01.231                             : en:False Hope
  187. 01:29:17.561                             : en:The Requiem
复制代码







                                       
                                       

                                       
                                       
                                       




梦之安魂曲/噩梦挽歌 Requiem.for.a.Dream.2000.2160p.BluRay.x265.10bit.SDR.DTS-HD.MA.TrueHD.7.1.Atmos-SWTYBLZ 47.42GB

Requiem.for.a.Dream.2000.2160p.BluRay.x265.10bit.SDR.DTS-HD.MA.TrueHD.7.1.Atmos-.zip

120.15 KB, 下载次数: 2, 下载积分: 蓝光币 -2

回复

使用道具 举报

懒得打字嘛,点击右侧快捷回复 【右侧内容,后台自定义】
您需要登录后才可以回帖 登录 | 立即加入

本版积分规则

Archiver|小黑屋| 蓝光电影网 |网站地图

Copyright © 2021 Comsenz Inc. Powered by 蓝光电影网

蓝光电影网

本站内容由用户自主分享和转载自互联网,转载目的在于传递更多信息,并不代表本网赞同其观点和对其真实性负责。

如有侵权、违反国家法律政策行为,请联系我们,我们会第一时间及时清除和处理!

举报反馈邮箱:[email protected]

快速回复 返回顶部 返回列表