找回密码

查看: 1097|回复: 0

[喜剧] 未婚女子/伴娘HOLD不住 Bachelorette.2012.LIMITED.1080p.BluRay.X264-AMIABLE 6.55GB

[复制链接]
蓝光币
2048
发表于 2020-12-6 08:49:53 | 显示全部楼层 |阅读模式


◎译  名 未婚女子/伴娘HOLD不住(台)
◎片  名 Bachelorette
◎年  代 2012
◎产  地 美国
◎类  别 笑剧 / 恋爱
◎语  言 英语
◎上映日期 2012-09-07(美国)
◎IMDb评分  5.3/10 from 45047 users
◎IMDb链接  https://www.imdb.com/title/tt1920849/
◎豆瓣评分 5.3/10 from 3017 users
◎豆瓣链接 https://movie.douban.com/subject/6873828/
◎片  长 87分钟
◎导  演 莱丝利·海德兰德 Leslye Headland
◎编  剧 莱丝利·海德兰德 Leslye Headland
◎主  演 安德鲁·兰内斯 Andrew Rannells
       克斯汀·邓斯特 Kirsten Dunst
       丽兹·卡潘 Lizzy Caplan
       艾拉·菲舍尔 Isla Fisher
       霍拉提奥·桑斯 Horatio Sanz
       凯尔·柏海莫 Kyle Bornheimer
       詹姆斯·麦斯登 James Marsden
       蕾蓓尔·威尔森 Rebel Wilson
       亚当·斯科特 Adam Scott
       贝丝·霍伊特 Beth Hoyt
◎标  签 笑剧 | 美国 | 恋爱 | 女性 | 2012 | 友谊 | 青春 | 笑剧片
◎简  介


  雷根(克尔斯滕·邓斯特 Kirsten Dunst 饰),吉娜(丽兹·卡潘 Lizzy Caplan 饰)和凯蒂(艾拉·菲舍尔 Isla Fisher 饰)是门生时代的好友,年少期间的浮滑为三个女人带来的美好的回忆,但对另一个女孩贝姬(瑞贝尔·威尔森 Rebel Wilson 饰)来说,工作就完全分歧了。本来,心宽体胖的贝姬已经经常遭到雷根一伙人的嘲笑,她们甚至为她取了“猪脸”这样一个可笑又愚蠢的绰号。
  
  时候流逝,贝姬行将成婚的消息如同一枚炸弹丢到了三个女人的身旁,不但如此,贝姬还约请了她们来做她的伴娘,“猪脸”都有了老公,三个标致的单身女人感应了危机。在婚礼之前,雷根决议为贝姬办一场单身派对,但此时的她不会想到,这个派对会带来怎样的麻烦与疯狂。
  1. Video
  2. ID                                       : 1
  3. Format                                   : AVC
  4. Format/Info                              : Advanced Video Codec
  5. Format profile                           : [email protected]
  6. Format settings                          : CABAC / 5 Ref Frames
  7. Format settings, CABAC                   : Yes
  8. Format settings, Reference frames        : 5 frames
  9. Codec ID                                 : V_MPEG4/ISO/AVC
  10. Duration                                 : 1 h 27 min
  11. Bit rate                                 : 9 275 kb/s
  12. Width                                    : 1 920 pixels
  13. Height                                   : 800 pixels
  14. Display aspect ratio                     : 2.40:1
  15. Frame rate mode                          : Constant
  16. Frame rate                               : 24.000 FPS
  17. Color space                              : YUV
  18. Chroma subsampling                       : 4:2:0
  19. Bit depth                                : 8 bits
  20. Scan type                                : Progressive
  21. Bits/(Pixel*Frame)                       : 0.252
  22. Stream size                              : 5.50 GiB (84%)
  23. Writing library                          : x264 core 129 r2245 bc13772
  24. Encoding settings                        : cabac=1 / ref=5 / deblock=1:0:0 / analyse=0x3:0x113 / me=umh / subme=8 / psy=1 / psy_rd=1.00:0.00 / mixed_ref=1 / me_range=16 / chroma_me=1 / trellis=1 / 8x8dct=1 / cqm=0 / deadzone=21,11 / fast_pskip=1 / chroma_qp_offset=-2 / threads=6 / lookahead_threads=1 / sliced_threads=0 / nr=0 / decimate=1 / interlaced=0 / bluray_compat=0 / constrained_intra=0 / bframes=3 / b_pyramid=2 / b_adapt=2 / b_bias=0 / direct=3 / weightb=1 / open_gop=0 / weightp=2 / keyint=240 / keyint_min=24 / scenecut=40 / intra_refresh=0 / rc_lookahead=50 / rc=2pass / mbtree=1 / bitrate=9275 / ratetol=1.0 / qcomp=0.60 / qpmin=0 / qpmax=69 / qpstep=4 / cplxblur=20.0 / qblur=0.5 / ip_ratio=1.40 / aq=1:1.00
  25. Language                                 : English
  26. Default                                  : Yes
  27. Forced                                   : No

  28. Audio
  29. ID                                       : 2
  30. Format                                   : DTS
  31. Format/Info                              : Digital Theater Systems
  32. Codec ID                                 : A_DTS
  33. Duration                                 : 1 h 27 min
  34. Bit rate mode                            : Constant
  35. Bit rate                                 : 1 509 kb/s
  36. Channel(s)                               : 6 channels
  37. Channel layout                           : C L R Ls Rs LFE
  38. Sampling rate                            : 48.0 kHz
  39. Frame rate                               : 93.750 FPS (512 SPF)
  40. Bit depth                                : 24 bits
  41. Compression mode                         : Lossy
  42. Stream size                              : 940 MiB (14%)
  43. Language                                 : English
  44. Default                                  : Yes
  45. Forced                                   : No

  46. Menu
  47. 00:00:00.000                             : en:00:00:00.000
  48. 00:11:41.208                             : en:00:11:41.208
  49. 00:19:02.625                             : en:00:19:02.625
  50. 00:30:54.208                             : en:00:30:54.208
  51. 00:40:34.667                             : en:00:40:34.667
  52. 00:55:15.708                             : en:00:55:15.708
  53. 01:11:12.417                             : en:01:11:12.417
  54. 01:22:17.250                             : en:01:22:17.250
复制代码









                                       
                                       

                                       
                                       
                                       




回复

使用道具 举报

懒得打字嘛,点击右侧快捷回复 【右侧内容,后台自定义】
您需要登录后才可以回帖 登录 | 立即加入

本版积分规则

Archiver| |网站地图

Copyright © 2024 Comsenz Inc. Powered by 蓝光电影网

本站内容由用户自主分享和转载自互联网,转载目的在于传递更多信息,并不代表本网赞同其观点和对其真实性负责。

如有侵权、违反国家法律政策行为,请联系我们,我们会第一时间及时清除和处理!

举报反馈邮箱:4k1080.com@gmail.com

快速回复 返回顶部 返回列表