找回密码

查看: 1122|回复: 1

[其他] 咒怨 Ju-on.The.Grudge.2002.JAPANESE.1080p.BluRay.x264.DTS-WiKi 8.85GB

[复制链接]
蓝光币
2048
发表于 2020-9-19 16:48:57 | 显示全部楼层 |阅读模式


◎译  名 咒怨/Ju-on: The Grudge
◎片  名 呪怨
◎年  代 2002
◎产  地 日本
◎类  别 悬疑 / 可骇
◎语  言 日语
◎上映日期 2002-10-18(Screamfest可骇电影节) / 2003-01-25(日本)
◎IMDb评分  6.7/10 from 40390 users
◎IMDb链接  https://www.imdb.com/title/tt0364385/
◎豆瓣评分 7.4/10 from 115168 users
◎豆瓣链接 https://movie.douban.com/subject/1306808/
◎片  长 92 分钟
◎导  演 清水崇 Takashi Shimizu
◎编  剧 清水崇 Takashi Shimizu
◎主  演 奥菜惠 Megumi Okina
       伊东美咲 Misaki Ito
       上原美佐 Misa Uehara
       市川由衣 Yui Ichikawa
       津田宽治 Kanji Tsuda
       藤贵子 Takako Fuji
       田中要次 Y?ji Tanaka
       森下能幸 Yoshiyuki Morishita
       榊豪杰 Hideo Sakaki
       藤真美穗 Miho Fujima
       尾关优哉 Yuya Ozeki
       柴田佳代子 Kayoko Shibata
       松山鹰志 Takashi Matsuyama
       小林万桜 Mao Kobayashi
       井上博一 Hirokazu Inoue
       本田大辅 Daisuke Honda
       谷津勋 Isao Yatsu
       Risa Odagiri
       松田珠里 Shuri Matsuda
       菊利友佳子 Yukako Kukuri
◎标  签 可骇 | 日本 | 咒怨 | 惊悚 | 可骇片 | 日本电影 | 鬼片 | 清水崇
◎简  介


  东京近郊一间屋被传是阴森鬼屋,说凡是造访者进入,城市古怪毙命或奥秘失落。传闻昔时该屋的仆人曾因突至的狂性大发斩死妻子,尔后自杀,其6岁的儿子今后失落,至今着落不明,鬼屋自此怨气冲天,每一位到访者城市在瞬间被可骇覆盖。
  
  大学女心理佳(奥菜惠)因做义工无意间闯入该屋,在遍寻不着要照顾的老人后,她于无意间看见一个奥秘诡异男孩,但转眼男孩又失落。自此,诸多可骇怪事起头持续不断在理佳身上发生,其身旁的亲友爱友也逐一遭到连累。
  1. Video
  2. ID                                       : 1
  3. Format                                   : AVC
  4. Format/Info                              : Advanced Video Codec
  5. Format profile                           : [email protected]
  6. Format settings, CABAC                   : Yes
  7. Format settings, ReFrames                : 4 frames
  8. Codec ID                                 : V_MPEG4/ISO/AVC
  9. Duration                                 : 1h 32mn
  10. Bit rate                                 : 12.1 Mbps
  11. Width                                    : 1 882 pixels
  12. Height                                   : 1 036 pixels
  13. Display aspect ratio                     : 16:9
  14. Frame rate mode                          : Constant
  15. Frame rate                               : 23.976 fps
  16. Color space                              : YUV
  17. Chroma subsampling                       : 4:2:0
  18. Bit depth                                : 8 bits
  19. Scan type                                : Progressive
  20. Bits/(Pixel*Frame)                       : 0.258
  21. Stream size                              : 7.59 GiB (87%)
  22. Writing library                          : x264 core 129 r2245+704+36 8e61944 tMod+MixAQ [[email protected]:2:0 X86_64]
  23. Encoding settings                        : cabac=1 / ref=4 / deblock=1:-3:-3 / analyse=0x3:0x133 / me=umh / subme=11 / psy=1 / fade_compensate=0.00 / psy_rd=1.05:0.10 / mixed_ref=1 / me_range=64 / chroma_me=1 / trellis=2 / 8x8dct=1 / cqm=0 / deadzone=21,11 / fast_pskip=0 / chroma_qp_offset=-3 / threads=12 / lookahead_threads=2 / sliced_threads=0 / nr=0 / decimate=0 / interlaced=0 / bluray_compat=0 / constrained_intra=0 / fgo=0 / bframes=10 / b_pyramid=2 / b_adapt=2 / b_bias=0 / direct=3 / weightb=1 / open_gop=0 / weightp=2 / keyint=250 / keyint_min=23 / scenecut=40 / intra_refresh=0 / rc_lookahead=80 / rc=2pass / mbtree=1 / bitrate=12082 / ratetol=1.0 / qcomp=0.70 / qpmin=0 / qpmax=69 / qpstep=4 / cplxblur=20.0 / qblur=0.5 / ip_ratio=1.40 / aq=3 / aq-strength=0.80 / aq-sensitivity=10.00 / aq-ifactor=1.00 / aq-pfactor=1.00 / aq-bfactor=1.00 / aq2=0
  24. Language                                 : Japanese
  25. Default                                  : Yes
  26. Forced                                   : No
  27. Audio
  28. ID                                       : 2
  29. Format                                   : DTS
  30. Format/Info                              : Digital Theater Systems
  31. Mode                                     : 16
  32. Format settings, Endianness              : Big
  33. Codec ID                                 : A_DTS
  34. Duration                                 : 1h 32mn
  35. Bit rate mode                            : Constant
  36. Bit rate                                 : 1 509 Kbps
  37. Channel(s)                               : 6 channels
  38. Channel positions                        : Front: L C R, Side: L R, LFE
  39. Sampling rate                            : 48.0 KHz
  40. Bit depth                                : 16 bits
  41. Compression mode                         : Lossy
  42. Stream size                              : 993 MiB (11%)
  43. Language                                 : Japanese
  44. Default                                  : Yes
  45. Forced                                   : No
  46. Text #1
  47. ID                                       : 3
  48. Format                                   : UTF-8
  49. Codec ID                                 : S_TEXT/UTF8
  50. Codec ID/Info                            : UTF-8 Plain Text
  51. Title                                    : Simplified
  52. Language                                 : Chinese
  53. Default                                  : Yes
  54. Forced                                   : No
  55. Text #2
  56. ID                                       : 4
  57. Format                                   : UTF-8
  58. Codec ID                                 : S_TEXT/UTF8
  59. Codec ID/Info                            : UTF-8 Plain Text
  60. Title                                    : Traditional
  61. Language                                 : Chinese
  62. Default                                  : No
  63. Forced                                   : No
  64. Menu
  65. 00:00:00.000                             : en:Chapter 1
  66. 00:00:12.512                             : en:Chapter 2
  67. 00:15:10.409                             : en:Chapter 3
  68. 00:29:17.464                             : en:Chapter 4
  69. 00:46:17.692                             : en:Chapter 5
  70. 00:57:58.058                             : en:Chapter 6
  71. 01:15:07.628                             : en:Chapter 7
复制代码









                                       
                                       

                                       
                                       
                                       




回复

使用道具 举报

蓝光币
40
发表于 2023-10-17 03:01:11 | 显示全部楼层

这个帖子不回对不起自己!我想我是一天也不能离开蓝光电影网。
回复

使用道具 举报

懒得打字嘛,点击右侧快捷回复 【右侧内容,后台自定义】
您需要登录后才可以回帖 登录 | 立即加入

本版积分规则

Archiver| |网站地图

Copyright © 2024 Comsenz Inc. Powered by 蓝光电影网

本站内容由用户自主分享和转载自互联网,转载目的在于传递更多信息,并不代表本网赞同其观点和对其真实性负责。

如有侵权、违反国家法律政策行为,请联系我们,我们会第一时间及时清除和处理!

举报反馈邮箱:4k1080.com@gmail.com

快速回复 返回顶部 返回列表