找回密码

查看: 1354|回复: 0

[其他] 托马斯大电影之世界探险记 Thomas.and.Friends.Big.World.Big.Adventures.The.Movie.2018.1080p.BluRay.x264-GETiT 4.25GB

[复制链接]
蓝光币
2048
发表于 2020-9-19 11:20:36 | 显示全部楼层 |阅读模式


◎译  名 托马斯大电影之天下探险记/Thomas, Big World! Big Adventures! The Movie/托马斯大电影之天下大冒险/汤玛士小火车:周游天下大冒险(台)
◎片  名 Thomas & Friends: Big World! Big Adventures! The Movie
◎年  代 2018
◎产  地 英国
◎类  别 动画 / 儿童
◎语  言 英语
◎上映日期 2018-07-20(英国) / 2019-05-31(中国大陆)
◎IMDb评分  5.4/10 from 191 users
◎IMDb链接  https://www.imdb.com/title/tt7415466/
◎豆瓣评分 7.2/10 from 1471 users
◎豆瓣链接 https://movie.douban.com/subject/30236340/
◎片  长 85分钟
◎导  演 大卫·斯特登 David Stoten
◎编  剧 安德鲁·布瑞纳 Andrew Brenner / 布瑞特·奥克罗夫特 Britt Allcroft / 雷夫·W·奥德里 Rev. W. Awdry
◎主  演 约瑟夫·梅 Joseph May
       泰莉莎·加拉赫 Teresa Gallagher
       凯瑞·莎勒 Kerry Shale
       大卫·曼金 David Menkin
       金宝·张 Chipo Chung
       约翰·哈斯勒 John Hasler
       彼得·安德烈 Peter Andre
       蒂娜·德赛 Tina Desai
       露西·蒙格马利 Lucy Montgomery
       朱尔斯·德·容 Jules de Jongh
       基思·威克姆 Keith Wickham
◎标  签 动画 | 英国 | 火车头 | 2019 | 儿童节 | 友谊 | 冒险 | 搞笑
◎简  介


  一辆来自澳洲的调皮小赛车艾斯,加出天下巡回角逐时途经了多多岛。从未分开过量多岛的小火车托马斯听到艾斯游历天下的见闻后,也决议展开自己第一次的全球大冒险!他和新的朋友——来自非洲肯尼亚的女性火车妮亚,一路超出沙漠、森林还有危险的高山,横跨非洲、南美洲、中美洲、北美洲和亚洲等五大洲,体验前所未见的绚丽风景和异国风情,用友谊、聪明与勇气写下了属于自己长大冒险之旅。
  1. Video
  2. ID                                       : 1
  3. Format                                   : AVC
  4. Format/Info                              : Advanced Video Codec
  5. Format profile                           : [email protected]
  6. Format settings                          : CABAC / 4 Ref Frames
  7. Format settings, CABAC                   : Yes
  8. Format settings, Reference frames        : 4 frames
  9. Codec ID                                 : V_MPEG4/ISO/AVC
  10. Duration                                 : 1 h 21 min
  11. Bit rate                                 : 7 000 kb/s
  12. Width                                    : 1 920 pixels
  13. Height                                   : 1 080 pixels
  14. Display aspect ratio                     : 16:9
  15. Frame rate mode                          : Constant
  16. Frame rate                               : 25.000 FPS
  17. Color space                              : YUV
  18. Chroma subsampling                       : 4:2:0
  19. Bit depth                                : 8 bits
  20. Scan type                                : Progressive
  21. Bits/(Pixel*Frame)                       : 0.135
  22. Stream size                              : 3.99 GiB (94%)
  23. Writing library                          : x264 core 161 r3018 db0d417
  24. Encoding settings                        : cabac=1 / ref=4 / deblock=1:-3:-3 / analyse=0x3:0x133 / me=umh / subme=9 / psy=1 / psy_rd=1.00:0.00 / mixed_ref=1 / me_range=16 / chroma_me=1 / trellis=2 / 8x8dct=1 / cqm=0 / deadzone=21,11 / fast_pskip=1 / chroma_qp_offset=-2 / threads=24 / lookahead_threads=2 / sliced_threads=0 / nr=0 / decimate=1 / interlaced=0 / bluray_compat=0 / constrained_intra=0 / bframes=3 / b_pyramid=2 / b_adapt=2 / b_bias=0 / direct=3 / weightb=1 / open_gop=0 / weightp=2 / keyint=250 / keyint_min=25 / scenecut=40 / intra_refresh=0 / rc_lookahead=60 / rc=crf / mbtree=1 / crf=17.0 / qcomp=0.60 / qpmin=0 / qpmax=69 / qpstep=4 / ip_ratio=1.40 / aq=3:0.80
  25. Language                                 : English
  26. Default                                  : Yes
  27. Forced                                   : No
  28. Color range                              : Limited
  29. Matrix coefficients                      : BT.709
  30. Audio
  31. ID                                       : 2
  32. Format                                   : AC-3
  33. Format/Info                              : Audio Coding 3
  34. Commercial name                          : Dolby Digital
  35. Codec ID                                 : A_AC3
  36. Duration                                 : 1 h 21 min
  37. Bit rate mode                            : Constant
  38. Bit rate                                 : 448 kb/s
  39. Channel(s)                               : 6 channels
  40. Channel layout                           : L R C LFE Ls Rs
  41. Sampling rate                            : 48.0 kHz
  42. Frame rate                               : 31.250 FPS (1536 SPF)
  43. Compression mode                         : Lossy
  44. Stream size                              : 261 MiB (6%)
  45. Title                                    : ac3
  46. Language                                 : English
  47. Service kind                             : Complete Main
  48. Default                                  : Yes
  49. Forced                                   : No
  50. Menu
  51. 00:00:00.000                             : en:00:00:00.000
  52. 00:07:44.240                             : en:00:07:44.240
  53. 00:15:31.160                             : en:00:15:31.160
  54. 00:22:31.120                             : en:00:22:31.120
  55. 00:32:52.520                             : en:00:32:52.520
  56. 00:41:30.480                             : en:00:41:30.480
  57. 00:51:42.080                             : en:00:51:42.080
  58. 00:59:31.280                             : en:00:59:31.280
  59. 01:06:18.280                             : en:01:06:18.280
  60. 01:15:07.240                             : en:01:15:07.240
  61. 01:20:00.880                             : en:01:20:00.880
复制代码




                                       
                                       

                                       
                                       
                                       




相关帖子

回复

使用道具 举报

懒得打字嘛,点击右侧快捷回复 【右侧内容,后台自定义】
您需要登录后才可以回帖 登录 | 立即加入

本版积分规则

Archiver| |网站地图

Copyright © 2024 Comsenz Inc. Powered by 蓝光电影网

本站内容由用户自主分享和转载自互联网,转载目的在于传递更多信息,并不代表本网赞同其观点和对其真实性负责。

如有侵权、违反国家法律政策行为,请联系我们,我们会第一时间及时清除和处理!

举报反馈邮箱:4k1080.com@gmail.com

快速回复 返回顶部 返回列表