找回密码

查看: 1650|回复: 0

[惊悚] 马大姐/大妈 Ma.2019.1080p.BluRay.REMUX.AVC.DTS-HD.MA.5.1-FGT 26.85GB

[复制链接]
蓝光币
2039
发表于 2019-8-25 21:56:55 | 显示全部楼层 |阅读模式


◎译  名 马大姐 / 大妈 / 妈妈 / 可骇大妈(港 / 台) / 老母
◎片  名 Ma
◎年  代 2019
◎产  地 美国
◎类  别 惊悚 / 可骇
◎语  言 英语
◎上映日期 2019-05-31(美国)
◎IMDb评分  5.8/10 from 9128 users
◎IMDb链接  http://www.imdb.com/title/tt7958736
◎豆瓣评分 5.6/10 from 397 users
◎豆瓣链接 https://movie.douban.com/subject/30137082/
◎片  长 99分钟
◎导  演 泰特·泰勒 Tate Taylor
◎编  剧 斯科蒂·兰德斯 Scotty Landes
◎主  演 奥克塔维亚·斯宾瑟 Octavia Spencer
       米西·派勒 Missi Pyle
       卢克·伊万斯 Luke Evans
       朱丽叶特·刘易斯 Juliette Lewis
       戴安娜·希维斯 Diana Silvers
       艾莉森·珍妮 Allison Janney
       麦克利·米勒 McKaley Miller
       多米尼克·伯吉斯 Dominic Burgess
       维克托·特平 Victor Turpin
       丹特·布朗 Dante Brown
       科里·福尔马尼斯 Corey Fogelmanis

◎标  签 可骇 | 惊悚 | 美国 | 悬疑 | 2019 | 剧情 | 黑色诙谐 | 霸凌
◎简  介  
  故事报告一群年轻人结识了一个陌生女子,陌生人热情地约请这群年轻人在自己的家中开Party,但是意外和可骇的工作却接连发生……
  1. Video
  2. ID                                       : 1
  3. Format                                   : AVC
  4. Format/Info                              : Advanced Video Codec
  5. Format profile                           : [email protected]
  6. Format settings                          : CABAC / 4 Ref Frames
  7. Format settings, CABAC                   : Yes
  8. Format settings, Reference frames        : 4 frames
  9. Codec ID                                 : V_MPEG4/ISO/AVC
  10. Duration                                 : 1 h 39 min
  11. Bit rate mode                            : Variable
  12. Bit rate                                 : 33.5 Mb/s
  13. Maximum bit rate                         : 37.6 Mb/s
  14. Width                                    : 1 920 pixels
  15. Height                                   : 1 080 pixels
  16. Display aspect ratio                     : 16:9
  17. Frame rate mode                          : Constant
  18. Frame rate                               : 23.976 (24000/1001) FPS
  19. Color space                              : YUV
  20. Chroma subsampling                       : 4:2:0
  21. Bit depth                                : 8 bits
  22. Scan type                                : Progressive
  23. Bits/(Pixel*Frame)                       : 0.674
  24. Stream size                              : 23.3 GiB (87%)
  25. Title                                    : Ma.2019.1080p.BluRay.REMUX.AVC.DTS-HD.MA.5.1-FGT
  26. Language                                 : English
  27. Default                                  : No
  28. Forced                                   : No
  29. Audio #1
  30. ID                                       : 2
  31. Format                                   : DTS XLL
  32. Format/Info                              : Digital Theater Systems
  33. Commercial name                          : DTS-HD Master Audio
  34. Codec ID                                 : A_DTS
  35. Duration                                 : 1 h 39 min
  36. Bit rate mode                            : Variable
  37. Bit rate                                 : 3 374 kb/s
  38. Channel(s)                               : 6 channels
  39. Channel layout                           : C L R Ls Rs LFE
  40. Sampling rate                            : 48.0 kHz
  41. Frame rate                               : 93.750 FPS (512 SPF)
  42. Bit depth                                : 24 bits
  43. Compression mode                         : Lossless
  44. Stream size                              : 2.34 GiB (9%)
  45. Title                                    : Ma.2019.1080p.BluRay.REMUX.AVC.DTS-HD.MA.5.1-FGT
  46. Language                                 : English
  47. Default                                  : Yes
  48. Forced                                   : No
  49. Audio #2
  50. ID                                       : 3
  51. Format                                   : DTS
  52. Format/Info                              : Digital Theater Systems
  53. Codec ID                                 : A_DTS
  54. Duration                                 : 1 h 39 min
  55. Bit rate mode                            : Constant
  56. Bit rate                                 : 768 kb/s
  57. Channel(s)                               : 6 channels
  58. Channel layout                           : C L R Ls Rs LFE
  59. Sampling rate                            : 48.0 kHz
  60. Frame rate                               : 93.750 FPS (512 SPF)
  61. Bit depth                                : 24 bits
  62. Compression mode                         : Lossy
  63. Stream size                              : 546 MiB (2%)
  64. Title                                    : Ma.2019.1080p.BluRay.REMUX.AVC.DTS-HD.MA.5.1-FGT
  65. Language                                 : Spanish
  66. Default                                  : No
  67. Forced                                   : No
  68. Audio #3
  69. ID                                       : 4
  70. Format                                   : DTS
  71. Format/Info                              : Digital Theater Systems
  72. Codec ID                                 : A_DTS
  73. Duration                                 : 1 h 39 min
  74. Bit rate mode                            : Constant
  75. Bit rate                                 : 768 kb/s
  76. Channel(s)                               : 6 channels
  77. Channel layout                           : C L R Ls Rs LFE
  78. Sampling rate                            : 48.0 kHz
  79. Frame rate                               : 93.750 FPS (512 SPF)
  80. Bit depth                                : 24 bits
  81. Compression mode                         : Lossy
  82. Stream size                              : 546 MiB (2%)
  83. Title                                    : Ma.2019.1080p.BluRay.REMUX.AVC.DTS-HD.MA.5.1-FGT
  84. Language                                 : French
  85. Default                                  : No
  86. Forced                                   : No
  87. Audio #4
  88. ID                                       : 5
  89. Format                                   : AC-3
  90. Format/Info                              : Audio Coding 3
  91. Commercial name                          : Dolby Digital
  92. Codec ID                                 : A_AC3
  93. Duration                                 : 1 h 39 min
  94. Bit rate mode                            : Constant
  95. Bit rate                                 : 192 kb/s
  96. Channel(s)                               : 2 channels
  97. Channel layout                           : L R
  98. Sampling rate                            : 48.0 kHz
  99. Frame rate                               : 31.250 FPS (1536 SPF)
  100. Bit depth                                : 16 bits
  101. Compression mode                         : Lossy
  102. Stream size                              : 136 MiB (0%)
  103. Title                                    : Ma.2019.1080p.BluRay.REMUX.AVC.DTS-HD.MA.5.1-FGT
  104. Language                                 : English
  105. Service kind                             : Complete Main
  106. Default                                  : No
  107. Forced                                   : No
  108. Text #1
  109. ID                                       : 6
  110. Format                                   : UTF-8
  111. Codec ID                                 : S_TEXT/UTF8
  112. Codec ID/Info                            : UTF-8 Plain Text
  113. Duration                                 : 1 h 38 min
  114. Bit rate                                 : 61 b/s
  115. Count of elements                        : 1399
  116. Stream size                              : 44.4 KiB (0%)
  117. Title                                    : English-SRT
  118. Language                                 : English
  119. Default                                  : Yes
  120. Forced                                   : No
  121. Text #2
  122. ID                                       : 7
  123. Format                                   : PGS
  124. Muxing mode                              : zlib
  125. Codec ID                                 : S_HDMV/PGS
  126. Codec ID/Info                            : Picture based subtitle format used on BDs/HD-DVDs
  127. Duration                                 : 1 h 38 min
  128. Bit rate                                 : 49.7 kb/s
  129. Count of elements                        : 3067
  130. Stream size                              : 35.1 MiB (0%)
  131. Title                                    : English-PGS
  132. Language                                 : English
  133. Default                                  : No
  134. Forced                                   : No
  135. Text #3
  136. ID                                       : 8
  137. Format                                   : PGS
  138. Muxing mode                              : zlib
  139. Codec ID                                 : S_HDMV/PGS
  140. Codec ID/Info                            : Picture based subtitle format used on BDs/HD-DVDs
  141. Duration                                 : 1 h 37 min
  142. Bit rate                                 : 38.9 kb/s
  143. Count of elements                        : 2850
  144. Stream size                              : 27.1 MiB (0%)
  145. Title                                    : Spanish-PGS
  146. Language                                 : Spanish
  147. Default                                  : No
  148. Forced                                   : No
  149. Text #4
  150. ID                                       : 9
  151. Format                                   : PGS
  152. Muxing mode                              : zlib
  153. Codec ID                                 : S_HDMV/PGS
  154. Codec ID/Info                            : Picture based subtitle format used on BDs/HD-DVDs
  155. Duration                                 : 1 h 37 min
  156. Bit rate                                 : 40.0 kb/s
  157. Count of elements                        : 2518
  158. Stream size                              : 28.0 MiB (0%)
  159. Title                                    : French-PGS
  160. Language                                 : French
  161. Default                                  : No
  162. Forced                                   : No
  163. Text #5
  164. ID                                       : 10
  165. Format                                   : PGS
  166. Muxing mode                              : zlib
  167. Codec ID                                 : S_HDMV/PGS
  168. Codec ID/Info                            : Picture based subtitle format used on BDs/HD-DVDs
  169. Duration                                 : 48 min 6 s
  170. Bit rate                                 : 308 b/s
  171. Count of elements                        : 8
  172. Stream size                              : 109 KiB (0%)
  173. Title                                    : Spanish-FORCED-PGS
  174. Language                                 : Spanish
  175. Default                                  : No
  176. Forced                                   : No
  177. Text #6
  178. ID                                       : 11
  179. Format                                   : PGS
  180. Muxing mode                              : zlib
  181. Codec ID                                 : S_HDMV/PGS
  182. Codec ID/Info                            : Picture based subtitle format used on BDs/HD-DVDs
  183. Duration                                 : 1 h 37 min
  184. Bit rate                                 : 347 b/s
  185. Count of elements                        : 22
  186. Stream size                              : 249 KiB (0%)
  187. Title                                    : French-FORCED-PGS
  188. Language                                 : French
  189. Default                                  : No
  190. Forced                                   : No
  191. Menu
  192. 00:00:00.000                             : en:Chapter 01
  193. 00:05:07.807                             : en:Chapter 02
  194. 00:10:42.350                             : en:Chapter 03
  195. 00:15:52.743                             : en:Chapter 04
  196. 00:19:27.166                             : en:Chapter 05
  197. 00:25:44.209                             : en:Chapter 06
  198. 00:30:02.801                             : en:Chapter 07
  199. 00:35:02.517                             : en:Chapter 08
  200. 00:40:19.792                             : en:Chapter 09
  201. 00:45:13.836                             : en:Chapter 10
  202. 00:50:08.964                             : en:Chapter 11
  203. 00:54:34.688                             : en:Chapter 12
  204. 00:57:49.632                             : en:Chapter 13
  205. 01:02:11.018                             : en:Chapter 14
  206. 01:06:09.256                             : en:Chapter 15
  207. 01:11:45.301                             : en:Chapter 16
  208. 01:16:23.537                             : en:Chapter 17
  209. 01:20:30.867                             : en:Chapter 18
  210. 01:25:23.326                             : en:Chapter 19
  211. 01:32:41.138                             : en:Chapter 20
复制代码






                                       
                                       

                                       
                                       
                                       




回复

使用道具 举报

懒得打字嘛,点击右侧快捷回复 【右侧内容,后台自定义】
您需要登录后才可以回帖 登录 | 立即加入

本版积分规则

Archiver| |网站地图

Copyright © 2024 Comsenz Inc. Powered by 蓝光电影网

本站内容由用户自主分享和转载自互联网,转载目的在于传递更多信息,并不代表本网赞同其观点和对其真实性负责。

如有侵权、违反国家法律政策行为,请联系我们,我们会第一时间及时清除和处理!

举报反馈邮箱:4k1080.com@gmail.com

快速回复 返回顶部 返回列表