找回密码

查看: 1726|回复: 0

[惊悚] 寻找斯蒂夫·麦昆/寻找史蒂夫·麦奎因 Finding.Steve.McQueen.2019.1080p.BluRay.REMUX.AVC.DTS-HD.MA.5.1-FGT 20.47GB

[复制链接]
蓝光币
2039
发表于 2019-8-12 22:13:12 | 显示全部楼层 |阅读模式


◎译  名 寻觅斯蒂夫·麦昆 / 寻觅史蒂夫·麦奎因
◎片  名 Finding Steve McQueen
◎年  代 2019
◎产  地 美国
◎类  别 惊悚
◎语  言 英语
◎上映日期 2019-03-15(美国)
◎IMDb评分  6.3/10 from 1478 users
◎IMDb链接  http://www.imdb.com/title/tt6032328
◎豆瓣评分 6.5/10 from 154 users
◎豆瓣链接 https://movie.douban.com/subject/26884358/
◎片  长 90分钟
◎导  演 马克·斯蒂文·约翰逊 Mark Steven Johnson
◎编  剧 Ken Hixon / Keith Sharon
◎主  演 崔维斯·费米尔 Travis Fimmel
      莉莉·拉贝 Lily Rabe
      威廉·菲德内尔 William Fichtner
      瑞切尔·泰勒 Rachael Taylor
      福里斯特·惠特克 Forest Whitaker
      杰克·威利 Jake Weary
      瑞斯·考罗 Rhys Coiro
      路易斯·隆巴迪 Louis Lombardi
      约翰·芬 John Finn
      里克·赖茨 Ric Reitz

◎标  签 犯罪 | 美国 | 实在事务改编 | 剧情 | 2019 | 真人真事改编 | TravisFimmel | 莉莉·拉贝
◎简  介  
  该片由马克·史蒂文·约翰逊执导,改编自美国历史上一次的实在银行抢劫案件。
  1. Video
  2. ID                                       : 1
  3. Format                                   : AVC
  4. Format/Info                              : Advanced Video Codec
  5. Format profile                           : [email protected]
  6. Format settings                          : CABAC / 4 Ref Frames
  7. Format settings, CABAC                   : Yes
  8. Format settings, Reference frames        : 4 frames
  9. Codec ID                                 : V_MPEG4/ISO/AVC
  10. Duration                                 : 1 h 31 min
  11. Bit rate mode                            : Variable
  12. Bit rate                                 : 30.0 Mb/s
  13. Maximum bit rate                         : 35.0 Mb/s
  14. Width                                    : 1 920 pixels
  15. Height                                   : 1 080 pixels
  16. Display aspect ratio                     : 16:9
  17. Frame rate mode                          : Constant
  18. Frame rate                               : 23.976 (24000/1001) FPS
  19. Standard                                 : NTSC
  20. Color space                              : YUV
  21. Chroma subsampling                       : 4:2:0
  22. Bit depth                                : 8 bits
  23. Scan type                                : Progressive
  24. Bits/(Pixel*Frame)                       : 0.603
  25. Stream size                              : 19.2 GiB (94%)
  26. Title                                    : Finding.Steve.McQueen.2019.1080p.BluRay.REMUX.AVC.DTS-HD.MA.5.1-FGT
  27. Language                                 : English
  28. Default                                  : No
  29. Forced                                   : No
  30. Color range                              : Limited
  31. Color primaries                          : BT.709
  32. Transfer characteristics                 : BT.709
  33. Matrix coefficients                      : BT.709
  34. Audio
  35. ID                                       : 2
  36. Format                                   : DTS XLL
  37. Format/Info                              : Digital Theater Systems
  38. Commercial name                          : DTS-HD Master Audio
  39. Codec ID                                 : A_DTS
  40. Duration                                 : 1 h 31 min
  41. Bit rate mode                            : Variable
  42. Bit rate                                 : 1 988 kb/s
  43. Channel(s)                               : 6 channels
  44. Channel layout                           : C L R Ls Rs LFE
  45. Sampling rate                            : 48.0 kHz
  46. Frame rate                               : 93.750 FPS (512 SPF)
  47. Bit depth                                : 16 bits
  48. Compression mode                         : Lossless
  49. Stream size                              : 1.27 GiB (6%)
  50. Title                                    : Finding.Steve.McQueen.2019.1080p.BluRay.REMUX.AVC.DTS-HD.MA.5.1-FGT
  51. Language                                 : English
  52. Default                                  : Yes
  53. Forced                                   : No
  54. Text #1
  55. ID                                       : 3
  56. Format                                   : UTF-8
  57. Codec ID                                 : S_TEXT/UTF8
  58. Codec ID/Info                            : UTF-8 Plain Text
  59. Duration                                 : 1 h 29 min
  60. Bit rate                                 : 63 b/s
  61. Count of elements                        : 1152
  62. Stream size                              : 41.7 KiB (0%)
  63. Title                                    : English-SRT
  64. Language                                 : English
  65. Default                                  : Yes
  66. Forced                                   : No
  67. Text #2
  68. ID                                       : 4
  69. Format                                   : PGS
  70. Muxing mode                              : zlib
  71. Codec ID                                 : S_HDMV/PGS
  72. Codec ID/Info                            : Picture based subtitle format used on BDs/HD-DVDs
  73. Duration                                 : 1 h 29 min
  74. Bit rate                                 : 48.7 kb/s
  75. Count of elements                        : 2582
  76. Stream size                              : 31.3 MiB (0%)
  77. Title                                    : English-PGS
  78. Language                                 : English
  79. Default                                  : No
  80. Forced                                   : No
  81. Menu
  82. 00:00:00.000                             : en:Chapter 01
  83. 00:05:07.890                             : en:Chapter 02
  84. 00:11:28.229                             : en:Chapter 03
  85. 00:16:36.662                             : en:Chapter 04
  86. 00:21:04.012                             : en:Chapter 05
  87. 00:30:22.570                             : en:Chapter 06
  88. 00:36:51.876                             : en:Chapter 07
  89. 00:43:00.077                             : en:Chapter 08
  90. 00:47:52.744                             : en:Chapter 09
  91. 00:55:21.693                             : en:Chapter 10
  92. 01:01:15.713                             : en:Chapter 11
  93. 01:07:14.405                             : en:Chapter 12
  94. 01:11:45.342                             : en:Chapter 13
  95. 01:15:02.581                             : en:Chapter 14
  96. 01:22:23.813                             : en:Chapter 15
  97. 01:28:33.975                             : en:Chapter 16
复制代码






                                       
                                       

                                       
                                       
                                       




回复

使用道具 举报

懒得打字嘛,点击右侧快捷回复 【右侧内容,后台自定义】
您需要登录后才可以回帖 登录 | 立即加入

本版积分规则

Archiver| |网站地图

Copyright © 2024 Comsenz Inc. Powered by 蓝光电影网

本站内容由用户自主分享和转载自互联网,转载目的在于传递更多信息,并不代表本网赞同其观点和对其真实性负责。

如有侵权、违反国家法律政策行为,请联系我们,我们会第一时间及时清除和处理!

举报反馈邮箱:4k1080.com@gmail.com

快速回复 返回顶部 返回列表