找回密码

查看: 1071|回复: 0

[动作] 千惊万险/巫师 Sorcerer.1977.1080p.BluRay.x264-HD4U 8.74GB

[复制链接]
蓝光币
2039
发表于 2019-6-27 20:41:47 | 显示全部楼层 |阅读模式


◎译  名 千惊万险 / 巫师 / 把戏师
◎片  名 Sorcerer
◎年  代 1977
◎产  地 美国
◎类  别 行动 / 惊悚 / 冒险
◎语  言 英语 / 西班牙语 / 法语 / 德语
◎上映日期 1977-06-24
◎IMDb评分  7.7/10 from 14915 users
◎IMDb链接  http://www.imdb.com/title/tt0076740
◎豆瓣评分 8.2/10 from 341 users
◎豆瓣链接 https://movie.douban.com/subject/1299812/
◎片  长 121分钟
◎导  演 William Friedkin
◎编  剧 Walon Green
◎主  演 Roy Scheider
      Bruno Cremer
      Francisco Rabal

◎标  签 美国 | 行动 | 惊悚 | 冒险 | 1977 | 美国电影 | 1970s | 威廉·弗莱德金
◎简  介  
  Four seedy criminal outcasts risk their lives in pursuit of redemption, both legal and moral, by driving unreliable trucks stocked with nitroglycerine through dangerous landscape to cap an oil well fire in a Central American banana republic. Featuring a trance-like score by Tangerine Dream and a visceral, astonishing performance by Roy Scheider, Friedkin's reinterpretation of Clouzot’s 1953 masterpiece is perhaps the best remake of all time and is among Friedkin’s most daring works. Three sequences alone –a chaotic car crash in Boston, the unloading of charred bodies in a Central American village, and the explosives laden trucks crossing a rickety storm-blown bridge – render Sorcerer a classic and retain their power to make audiences gasp. Released the same year as Star Wars, Friedkin's audacious masterpiece represents the braver road abandoned by the studio system.
◎获奖情况  
  第50届奥斯卡金像奖(1978)
  最好声响(提名) Robert Knudson / 罗伯特·格拉斯 / Richard Tyler / Jean-Louis Ducarme

  1. Video
  2. ID                                       : 1
  3. Format                                   : AVC
  4. Format/Info                              : Advanced Video Codec
  5. Format profile                           : [email protected]
  6. Format settings, CABAC                   : Yes
  7. Format settings, ReFrames                : 4 frames
  8. Codec ID                                 : V_MPEG4/ISO/AVC
  9. Duration                                 : 2 h 1 min
  10. Bit rate                                 : 8 790 kb/s
  11. Width                                    : 1 920 pixels
  12. Height                                   : 1 080 pixels
  13. Display aspect ratio                     : 16:9
  14. Frame rate mode                          : Constant
  15. Frame rate                               : 23.976 FPS
  16. Color space                              : YUV
  17. Chroma subsampling                       : 4:2:0
  18. Bit depth                                : 8 bits
  19. Scan type                                : Progressive
  20. Bits/(Pixel*Frame)                       : 0.177
  21. Stream size                              : 7.28 GiB (83%)
  22. Writing library                          : x264 core 140 r2377 1ca7bb9
  23. Encoding settings                        : cabac=1 / ref=4 / deblock=1:0:0 / analyse=0x3:0x133 / me=umh / subme=7 / psy=1 / psy_rd=1.00:0.00 / mixed_ref=1 / me_range=16 / chroma_me=1 / trellis=1 / 8x8dct=1 / cqm=0 / deadzone=21,11 / fast_pskip=0 / chroma_qp_offset=-2 / threads=18 / lookahead_threads=3 / sliced_threads=0 / nr=0 / decimate=1 / interlaced=0 / bluray_compat=0 / constrained_intra=0 / bframes=3 / b_pyramid=2 / b_adapt=1 / b_bias=0 / direct=1 / weightb=1 / open_gop=0 / weightp=2 / keyint=250 / keyint_min=23 / scenecut=40 / intra_refresh=0 / rc_lookahead=40 / rc=2pass / mbtree=1 / bitrate=8790 / ratetol=1.0 / qcomp=0.60 / qpmin=0 / qpmax=69 / qpstep=4 / cplxblur=20.0 / qblur=0.5 / ip_ratio=1.40 / aq=1:1.00
  24. Language                                 : English
  25. Default                                  : Yes
  26. Forced                                   : No
  27. Audio
  28. ID                                       : 2
  29. Format                                   : DTS
  30. Format/Info                              : Digital Theater Systems
  31. Mode                                     : 16
  32. Format settings, Endianness              : Big
  33. Codec ID                                 : A_DTS
  34. Duration                                 : 2 h 1 min
  35. Bit rate mode                            : Constant
  36. Bit rate                                 : 1 509 kb/s
  37. Channel(s)                               : 6 channels
  38. Channel positions                        : Front: L C R, Side: L R, LFE
  39. Sampling rate                            : 48.0 kHz
  40. Frame rate                               : 93.750 FPS (512 spf)
  41. Bit depth                                : 24 bits
  42. Compression mode                         : Lossy
  43. Stream size                              : 1.28 GiB (15%)
  44. Language                                 : English
  45. Default                                  : Yes
  46. Forced                                   : No
  47. Menu
  48. 00:00:00.000                             : en:00:00:00.000
  49. 00:01:29.798                             : en:00:01:29.798
  50. 00:06:37.480                             : en:00:06:37.480
  51. 00:16:12.930                             : en:00:16:12.930
  52. 00:24:14.078                             : en:00:24:14.078
  53. 00:40:14.370                             : en:00:40:14.370
  54. 00:47:30.431                             : en:00:47:30.431
  55. 00:52:00.993                             : en:00:52:00.993
  56. 00:55:00.380                             : en:00:55:00.380
  57. 01:03:27.095                             : en:01:03:27.095
  58. 01:08:41.951                             : en:01:08:41.951
  59. 01:15:46.834                             : en:01:15:46.834
  60. 01:26:33.688                             : en:01:26:33.688
  61. 01:41:17.989                             : en:01:41:17.989
  62. 01:43:30.121                             : en:01:43:30.121
  63. 01:47:16.138                             : en:01:47:16.138
  64. 01:54:05.922                             : en:01:54:05.922
  65. 01:58:32.105                             : en:01:58:32.105
复制代码









                                       
                                       

                                       
                                       
                                       




回复

使用道具 举报

懒得打字嘛,点击右侧快捷回复 【右侧内容,后台自定义】
您需要登录后才可以回帖 登录 | 立即加入

本版积分规则

Archiver| |网站地图

Copyright © 2024 Comsenz Inc. Powered by 蓝光电影网

本站内容由用户自主分享和转载自互联网,转载目的在于传递更多信息,并不代表本网赞同其观点和对其真实性负责。

如有侵权、违反国家法律政策行为,请联系我们,我们会第一时间及时清除和处理!

举报反馈邮箱:4k1080.com@gmail.com

快速回复 返回顶部 返回列表