找回密码

查看: 979|回复: 0

[其他] 乐高积木世界 Beyond.the.Brick.A.LEGO.Brickumentary.2014.1080p.BluRay.x264-PSYCHD 6.56GB

[复制链接]
蓝光币
2039
发表于 2020-9-17 10:37:38 | 显示全部楼层 |阅读模式


◎译  名 乐高积木天下
◎片  名 Beyond the Brick: A LEGO Brickumentary
◎年  代 2014
◎产  地 美国
◎类  别 记载片
◎语  言 英语
◎上映日期 2015-07-31(北美)
◎IMDb评分  6.8/10 from 1852 users
◎IMDb链接  https://www.imdb.com/title/tt3214286/
◎豆瓣评分 8.5/10 from 460 users
◎豆瓣链接 https://movie.douban.com/subject/25897206/
◎片  长 95分钟
◎导  演 基夫·戴维森 Kief Davidson / 丹尼尔·扬格 Daniel Junge
◎编  剧 丹尼尔·扬格 Daniel Junge / 戴维斯·库姆贝 Davis Coombe / 基夫·戴维森 Kief Davidson
◎主  演 杰森·贝特曼 Jason Bateman
◎标  签 记载片 | LEGO | 美国 | 乐高 | 2014 | Documentary | 2015 | 美国电影
◎简  介


  The first ever Lego documentary, Beyond The Brick: A Lego Brickumentary, premiered earlier this year at the Tribeca Film Festival. Fresh off the hype and success of The Lego Movie, the film garnered very strong reviews and has now been picked up for worldwide distribution by RADiUS. Jason Bateman narrates and Daniel Junge and Kief Davidson direct.
  1. Video
  2. ID                                       : 1
  3. Format                                   : AVC
  4. Format/Info                              : Advanced Video Codec
  5. Format profile                           : [email protected]
  6. Format settings                          : CABAC / 4 Ref Frames
  7. Format settings, CABAC                   : Yes
  8. Format settings, Reference frames        : 4 frames
  9. Codec ID                                 : V_MPEG4/ISO/AVC
  10. Duration                                 : 1 h 32 min
  11. Bit rate                                 : 8 629 kb/s
  12. Width                                    : 1 920 pixels
  13. Height                                   : 1 080 pixels
  14. Display aspect ratio                     : 16:9
  15. Frame rate mode                          : Constant
  16. Frame rate                               : 23.976 (24000/1001/189150) FPS
  17. Color space                              : YUV
  18. Chroma subsampling                       : 4:2:0
  19. Bit depth                                : 8 bits
  20. Scan type                                : Progressive
  21. Bits/(Pixel*Frame)                       : 0.174
  22. Stream size                              : 5.45 GiB (83%)
  23. Writing library                          : x264 core 148 r2638 7599210
  24. Encoding settings                        : cabac=1 / ref=4 / deblock=1:-3:-3 / analyse=0x3:0x113 / me=umh / subme=8 / psy=1 / psy_rd=1.00:0.00 / mixed_ref=1 / me_range=16 / chroma_me=1 / trellis=1 / 8x8dct=1 / cqm=0 / deadzone=21,11 / fast_pskip=1 / chroma_qp_offset=-2 / threads=24 / lookahead_threads=4 / sliced_threads=0 / nr=0 / decimate=1 / interlaced=0 / bluray_compat=0 / constrained_intra=0 / bframes=3 / b_pyramid=2 / b_adapt=2 / b_bias=0 / direct=3 / weightb=1 / open_gop=0 / weightp=2 / keyint=240 / keyint_min=24 / scenecut=40 / intra_refresh=0 / rc_lookahead=50 / rc=2pass / mbtree=1 / bitrate=8629 / ratetol=1.0 / qcomp=0.60 / qpmin=0 / qpmax=69 / qpstep=4 / cplxblur=20.0 / qblur=0.5 / ip_ratio=1.40 / aq=1:1.00
  25. Language                                 : English
  26. Default                                  : Yes
  27. Forced                                   : No
  28. Statistics Tags Issue                    : no_variable_data 1970-01-01 00:00:00 / no_variable_data 2010-02-22 21:41:29
  29. FromStats_BitRate                        : 8625030
  30. FromStats_Duration                       : 01:32:35.717000000
  31. FromStats_FrameCount                     : 133204
  32. FromStats_StreamSize                     : 5989778732

  33. Audio
  34. ID                                       : 2
  35. Format                                   : DTS
  36. Format/Info                              : Digital Theater Systems
  37. Codec ID                                 : A_DTS
  38. Duration                                 : 1 h 32 min
  39. Bit rate mode                            : Constant
  40. Bit rate                                 : 1 509 kb/s
  41. Channel(s)                               : 6 channels
  42. Channel layout                           : C L R Ls Rs LFE
  43. Sampling rate                            : 48.0 kHz
  44. Frame rate                               : 93.750 FPS (512 SPF)
  45. Bit depth                                : 24 bits
  46. Compression mode                         : Lossy
  47. Stream size                              : 999 MiB (15%)
  48. Language                                 : English
  49. Default                                  : Yes
  50. Forced                                   : No
  51. Statistics Tags Issue                    : no_variable_data 1970-01-01 00:00:00 / no_variable_data 2010-02-22 21:41:29
  52. FromStats_BitRate                        : 1508999
  53. FromStats_Duration                       : 01:32:34.710000000
  54. FromStats_FrameCount                     : 520754
  55. FromStats_StreamSize                     : 1047757048

  56. Text #1
  57. ID                                       : 3
  58. Format                                   : UTF-8
  59. Codec ID                                 : S_TEXT/UTF8
  60. Codec ID/Info                            : UTF-8 Plain Text
  61. Title                                    : Forced
  62. Language                                 : English
  63. Default                                  : Yes
  64. Forced                                   : Yes
  65. Statistics Tags Issue                    : no_variable_data 1970-01-01 00:00:00 / no_variable_data 2010-02-22 21:41:29
  66. FromStats_BitRate                        : 4
  67. FromStats_Duration                       : 01:01:55.502000000
  68. FromStats_FrameCount                     : 52
  69. FromStats_StreamSize                     : 2304

  70. Text #2
  71. ID                                       : 4
  72. Format                                   : UTF-8
  73. Codec ID                                 : S_TEXT/UTF8
  74. Codec ID/Info                            : UTF-8 Plain Text
  75. Language                                 : English
  76. Default                                  : No
  77. Forced                                   : No
  78. Statistics Tags Issue                    : no_variable_data 1970-01-01 00:00:00 / no_variable_data 2010-02-22 21:41:29
  79. FromStats_BitRate                        : 109
  80. FromStats_Duration                       : 01:29:14.056000000
  81. FromStats_FrameCount                     : 1646
  82. FromStats_StreamSize                     : 73038

  83. Text #3
  84. ID                                       : 5
  85. Format                                   : UTF-8
  86. Codec ID                                 : S_TEXT/UTF8
  87. Codec ID/Info                            : UTF-8 Plain Text
  88. Title                                    : SDH
  89. Language                                 : English
  90. Default                                  : No
  91. Forced                                   : No
  92. Statistics Tags Issue                    : no_variable_data 1970-01-01 00:00:00 / no_variable_data 2010-02-22 21:41:29
  93. FromStats_BitRate                        : 110
  94. FromStats_Duration                       : 01:29:14.056000000
  95. FromStats_FrameCount                     : 1672
  96. FromStats_StreamSize                     : 73795

  97. Menu
  98. 00:00:00.000                             : en:00:00:00.000
  99. 00:03:43.557                             : en:00:03:43.557
  100. 00:07:40.210                             : en:00:07:40.210
  101. 00:12:43.054                             : en:00:12:43.054
  102. 00:18:17.138                             : en:00:18:17.138
  103. 00:23:03.424                             : en:00:23:03.424
  104. 00:30:33.999                             : en:00:30:33.999
  105. 00:34:47.377                             : en:00:34:47.377
  106. 00:38:24.802                             : en:00:38:24.802
  107. 00:45:18.341                             : en:00:45:18.341
  108. 00:49:33.179                             : en:00:49:33.179
  109. 00:55:24.488                             : en:00:55:24.488
  110. 01:03:11.997                             : en:01:03:11.997
  111. 01:09:51.771                             : en:01:09:51.771
  112. 01:16:30.836                             : en:01:16:30.836
  113. 01:18:53.145                             : en:01:18:53.145
  114. 01:24:41.618                             : en:01:24:41.618
  115. 01:29:16.059                             : en:01:29:16.059
复制代码









                                       
                                       

                                       
                                       
                                       




相关帖子

回复

使用道具 举报

懒得打字嘛,点击右侧快捷回复 【右侧内容,后台自定义】
您需要登录后才可以回帖 登录 | 立即加入

本版积分规则

Archiver| |网站地图

Copyright © 2024 Comsenz Inc. Powered by 蓝光电影网

本站内容由用户自主分享和转载自互联网,转载目的在于传递更多信息,并不代表本网赞同其观点和对其真实性负责。

如有侵权、违反国家法律政策行为,请联系我们,我们会第一时间及时清除和处理!

举报反馈邮箱:4k1080.com@gmail.com

快速回复 返回顶部 返回列表