找回密码

查看: 3186|回复: 0

[惊悚] 大灰熊/丛林危机 Grizzly.1976.REMASTERED.1080p.BluRay.REMUX.AVC.DTS-HD.MA.5.1-FGT 21.98GB

[复制链接]
蓝光币
2039
发表于 2021-7-21 11:37:26 | 显示全部楼层 |阅读模式


◎译  名 大灰熊/森林危机
◎片  名 Grizzly
◎年  代 1976
◎产  地 美国
◎类  别 惊悚 / 可骇
◎语  言 英语
◎上映日期 1976-05-21
◎豆瓣评分 /10 from 0 users
◎豆瓣链接 https://movie.douban.com/subject/1299672/
◎片  长 91 分钟
◎导  演 威廉·格德勒 William Girdler
◎编  剧 安德鲁·普莱尼 Andrew Prine / 大卫·谢尔登 David Sheldon / 哈维·弗拉克斯曼 Harvey Flaxman
◎主  演 安德鲁·普莱尼 Andrew Prine
       理查德·杰克尔 Richard Jaeckel
       Kermit Echols Kermit Echols
       Gene Witham Gene Witham
       Sandra Dorsey Sandra Dorsey
       Mike Clifford Mike Clifford
       苏珊·巴克林尼 Susan Backlinie
       琼·麦考尔 Joan McCall
       哈维·弗拉克斯曼 Harvey Flaxman
       克里斯托弗·乔治 Christopher George
       汤姆·阿库拉吉 Tom Arcuragi
◎标  签 可骇 | 熊 | 美国 | 血腥 | 惊悚 | 童年回忆 | 美国电影 | 暴力
◎简  介


  A fifteen-foot grizzly bear figures out that humans make for a tasty treat. As a park ranger tries rallying his men to bring about the bear's capture or destruction, his efforts are thwarted by the introduction of dozens of drunken hunters into the area.
  1. Video
  2. ID                                       : 1
  3. ID in the original source medium         : 4113 (0x1011)
  4. Format                                   : AVC
  5. Format/Info                              : Advanced Video Codec
  6. Format profile                           : [email protected]
  7. Format settings                          : CABAC / 3 Ref Frames
  8. Format settings, CABAC                   : Yes
  9. Format settings, Reference frames        : 3 frames
  10. Format settings, GOP                     : M=3, N=12
  11. Codec ID                                 : V_MPEG4/ISO/AVC
  12. Duration                                 : 1 h 30 min
  13. Bit rate mode                            : Variable
  14. Bit rate                                 : 28.7 Mb/s
  15. Maximum bit rate                         : 35.0 Mb/s
  16. Width                                    : 1 920 pixels
  17. Height                                   : 1 080 pixels
  18. Display aspect ratio                     : 16:9
  19. Frame rate mode                          : Constant
  20. Frame rate                               : 23.976 (24000/1001/189150) FPS
  21. Standard                                 : NTSC
  22. Color space                              : YUV
  23. Chroma subsampling                       : 4:2:0
  24. Bit depth                                : 8 bits
  25. Scan type                                : Progressive
  26. Bits/(Pixel*Frame)                       : 0.578
  27. Stream size                              : 18.2 GiB (83%)
  28. Language                                 : English
  29. Default                                  : No
  30. Forced                                   : No
  31. Color range                              : Limited
  32. Color primaries                          : BT.709
  33. Transfer characteristics                 : BT.709
  34. Matrix coefficients                      : BT.709
  35. Original source medium                   : Blu-ray
  36. Audio #1
  37. ID                                       : 2
  38. ID in the original source medium         : 4352 (0x1100)
  39. Format                                   : DTS XLL
  40. Format/Info                              : Digital Theater Systems
  41. Commercial name                          : DTS-HD Master Audio
  42. Codec ID                                 : A_DTS
  43. Duration                                 : 1 h 30 min
  44. Bit rate mode                            : Variable
  45. Bit rate                                 : 3 227 kb/s
  46. Channel(s)                               : 6 channels
  47. Channel layout                           : C L R Ls Rs LFE
  48. Sampling rate                            : 48.0 kHz
  49. Frame rate                               : 93.750 FPS (512 SPF)
  50. Bit depth                                : 24 bits
  51. Compression mode                         : Lossless
  52. Stream size                              : 2.05 GiB (9%)
  53. Title                                    : Surround 5.1
  54. Language                                 : English
  55. Default                                  : Yes
  56. Forced                                   : No
  57. Original source medium                   : Blu-ray
  58. Audio #2
  59. ID                                       : 3
  60. ID in the original source medium         : 4353 (0x1101)
  61. Format                                   : DTS XLL
  62. Format/Info                              : Digital Theater Systems
  63. Commercial name                          : DTS-HD Master Audio
  64. Codec ID                                 : A_DTS
  65. Duration                                 : 1 h 30 min
  66. Bit rate mode                            : Variable
  67. Bit rate                                 : 2 106 kb/s
  68. Channel(s)                               : 2 channels
  69. Channel layout                           : L R
  70. Sampling rate                            : 48.0 kHz
  71. Frame rate                               : 93.750 FPS (512 SPF)
  72. Bit depth                                : 24 bits
  73. Compression mode                         : Lossless
  74. Stream size                              : 1.34 GiB (6%)
  75. Title                                    : DTS-HD MA 2.0
  76. Language                                 : English
  77. Default                                  : No
  78. Forced                                   : No
  79. Original source medium                   : Blu-ray
  80. Audio #3
  81. ID                                       : 4
  82. ID in the original source medium         : 4354 (0x1102)
  83. Format                                   : AC-3
  84. Format/Info                              : Audio Coding 3
  85. Commercial name                          : Dolby Digital
  86. Codec ID                                 : A_AC3
  87. Duration                                 : 1 h 30 min
  88. Bit rate mode                            : Constant
  89. Bit rate                                 : 192 kb/s
  90. Channel(s)                               : 1 channel
  91. Channel layout                           : C
  92. Sampling rate                            : 48.0 kHz
  93. Frame rate                               : 31.250 FPS (1536 SPF)
  94. Compression mode                         : Lossy
  95. Stream size                              : 125 MiB (1%)
  96. Title                                    : DD 1.0
  97. Language                                 : English
  98. Service kind                             : Complete Main
  99. Default                                  : No
  100. Forced                                   : No
  101. Original source medium                   : Blu-ray
  102. Audio #4
  103. ID                                       : 5
  104. ID in the original source medium         : 4355 (0x1103)
  105. Format                                   : AC-3
  106. Format/Info                              : Audio Coding 3
  107. Commercial name                          : Dolby Digital
  108. Codec ID                                 : A_AC3
  109. Duration                                 : 1 h 30 min
  110. Bit rate mode                            : Constant
  111. Bit rate                                 : 192 kb/s
  112. Channel(s)                               : 2 channels
  113. Channel layout                           : L R
  114. Sampling rate                            : 48.0 kHz
  115. Frame rate                               : 31.250 FPS (1536 SPF)
  116. Compression mode                         : Lossy
  117. Stream size                              : 125 MiB (1%)
  118. Title                                    : DD 2.0
  119. Language                                 : English
  120. Service kind                             : Complete Main
  121. Default                                  : No
  122. Forced                                   : No
  123. Original source medium                   : Blu-ray
  124. Audio #5
  125. ID                                       : 6
  126. ID in the original source medium         : 4356 (0x1104)
  127. Format                                   : AC-3
  128. Format/Info                              : Audio Coding 3
  129. Commercial name                          : Dolby Digital
  130. Codec ID                                 : A_AC3
  131. Duration                                 : 1 h 30 min
  132. Bit rate mode                            : Constant
  133. Bit rate                                 : 192 kb/s
  134. Channel(s)                               : 2 channels
  135. Channel layout                           : L R
  136. Sampling rate                            : 48.0 kHz
  137. Frame rate                               : 31.250 FPS (1536 SPF)
  138. Compression mode                         : Lossy
  139. Stream size                              : 125 MiB (1%)
  140. Title                                    : DD 2.0
  141. Language                                 : English
  142. Service kind                             : Complete Main
  143. Default                                  : No
  144. Forced                                   : No
  145. Original source medium                   : Blu-ray
  146. Text #1
  147. ID                                       : 7
  148. Format                                   : UTF-8
  149. Codec ID                                 : S_TEXT/UTF8
  150. Codec ID/Info                            : UTF-8 Plain Text
  151. Duration                                 : 1 h 27 min
  152. Bit rate                                 : 49 b/s
  153. Count of elements                        : 1116
  154. Stream size                              : 31.5 KiB (0%)
  155. Title                                    : SRT
  156. Language                                 : English
  157. Default                                  : Yes
  158. Forced                                   : No
  159. Text #2
  160. ID                                       : 8
  161. ID in the original source medium         : 4608 (0x1200)
  162. Format                                   : PGS
  163. Muxing mode                              : zlib
  164. Codec ID                                 : S_HDMV/PGS
  165. Codec ID/Info                            : Picture based subtitle format used on BDs/HD-DVDs
  166. Duration                                 : 1 h 29 min
  167. Bit rate                                 : 17.2 kb/s
  168. Count of elements                        : 2383
  169. Stream size                              : 11.0 MiB (0%)
  170. Language                                 : English
  171. Default                                  : No
  172. Forced                                   : No
  173. Original source medium                   : Blu-ray
  174. Menu
  175. 00:00:00.000                             : Chapter 01
  176. 00:08:20.541                             : Chapter 02
  177. 00:15:42.483                             : Chapter 03
  178. 00:20:41.615                             : Chapter 04
  179. 00:26:42.267                             : Chapter 05
  180. 00:32:25.401                             : Chapter 06
  181. 00:38:21.048                             : Chapter 07
  182. 00:45:01.073                             : Chapter 08
  183. 00:52:53.587                             : Chapter 09
  184. 01:02:00.591                             : Chapter 10
  185. 01:16:10.232                             : Chapter 11
  186. 01:22:15.221                             : Chapter 12
  187. 01:29:58.976                             : Chapter 13
复制代码







                                       
                                       

                                       
                                       
                                       




回复

使用道具 举报

懒得打字嘛,点击右侧快捷回复 【右侧内容,后台自定义】
您需要登录后才可以回帖 登录 | 立即加入

本版积分规则

Archiver| |网站地图

Copyright © 2024 Comsenz Inc. Powered by 蓝光电影网

本站内容由用户自主分享和转载自互联网,转载目的在于传递更多信息,并不代表本网赞同其观点和对其真实性负责。

如有侵权、违反国家法律政策行为,请联系我们,我们会第一时间及时清除和处理!

举报反馈邮箱:4k1080.com@gmail.com

快速回复 返回顶部 返回列表