找回密码

查看: 261|回复: 0

[REMUX.HEVC] 虫虫危机.A.Bugs.Life.1998.2160p.BluRay.REMUX.HEVC.DTS-HD.MA.TrueHD.7.1.Atmos-PB69 50.21GB

[复制链接]
蓝光币
1917
发表于 2024-4-20 16:00:27 | 显示全部楼层 |阅读模式


◎译  名 虫虫危机 / 虫虫奸细队(港)
◎片  名 A Bug's Life
◎年  代 1998
◎产  地 美国
◎类  别 笑剧 / 动画 / 冒险
◎语  言 英语
◎上映日期 1998-11-25(美国)
◎IMDb评星  ★★★★★★★☆☆☆
◎IMDb评分  7.2/10 from 314,182 users
◎IMDb链接  https://www.imdb.com/title/tt0120623/
◎豆瓣评星 ★★★★☆
◎豆瓣评分 8.0/10 from 101,199 users
◎豆瓣链接 https://movie.douban.com/subject/1291573/
◎片  长 95分钟
◎导  演 约翰·拉塞特 / John Lasseter
      安德鲁·斯坦顿 / Andrew Stanton
◎演  员 大卫·弗利 / Dave Foley
      凯文·史派西 / Kevin Spacey
      茱莉亚·路易斯-德瑞弗斯 / Julia Louis-Dreyfus
      海顿·潘妮蒂尔 / Hayden Panettiere
      李·昂克里奇 / Lee Unkrich
      Rosalinde Mynster Rosalinde Mynster
      比尔·法玛尔 / Bill Farmer
      Sam Gifaldi Sam Gifaldi
      胡立成 / Licheng Hu
◎编  剧 安德鲁·斯坦顿 / Andrew Stanton
      唐·麦肯里面 / Don McEnery
      鲍勃·肖 / Bob Shaw
      大卫·雷诺兹 / David Reynolds
      鲍勃·肖 / Bob Shaw
◎制  片  人 达拉·K·安德森 / Darla K. Anderson
      Kevin Reher Kevin Reher
◎音  乐 兰迪·纽曼 / Randy Newman
◎摄  影 莎朗·卡拉汉 / Sharon Calahan
◎剪  辑 李·昂克里奇 / Lee Unkrich
◎选  角 露丝·兰伯特 / Ruth Lambert
◎美  术 威廉·科恩 / William Cone
◎副  导  演 艾什·布兰农 / Ash Brannon
◎视觉殊效 Steve Johnson Steve Johnson
      Michael Fong Michael Fong
      彼得·德塞夫 / Peter DeSève
      David Lomax David Lomax
      Fred Warter Fred Warter
◎简  介 
  菲力在蚂蚁王国里并不怎样受接待,虽然他发现了先辈的收割机,但是鬼使神差,他居然惹了大祸,公主妹妹小不点是以被蝗虫仇敌捉去,而且蚂蚁的食粮也遭到了蝗虫的威胁。即使菲力救出了小不点,但还是被赶出蚂蚁王国。只要他在里面的天下找到了对于蝗虫的法子,才有能够回抵故里。
  菲力在城市中碰到了马戏团的一队昆虫。爬虫、蝴蝶、瓢虫、臭虫,他们都似乎身怀特技,令菲力非常兴奋,因而菲利巴他们请回蚂蚁王国对于蝗虫。一场恶战行将起头,昆虫们愈战愈勇,和菲力一同投入到斗争中。大智大勇的菲力也终究回到了蚂蚁王国中,遭到大伙儿的赞美。
◎获奖情况 
  第71届奥斯卡金像奖 (1999)
  音乐/笑剧片最好原创配乐(提名) 兰迪·纽曼
  第56届金球奖 (1999)
  电影类 最好原创配乐(提名) 兰迪·纽曼
  第53届英国电影学院奖 (2000)
  电影奖 最好特别视觉结果(提名) 埃本·奥斯特比,比尔·里维斯,里克·塞尔,莎朗·卡拉汉
  第27届动画安妮奖 (1999)
  最好动画长片(提名)
  最好导演(提名) 安德鲁·斯坦顿,约翰·拉塞特
  最好编剧(提名) 唐·麦肯里面,安德鲁·斯坦顿,鲍勃·肖,约翰·拉塞特,乔·兰福特
  最好艺术指导(提名) 威廉·科恩
◎幕后揭秘
  本片是迪士尼与皮克斯公司一同合作拍摄的第二部3D电脑动画,前一部作品《玩具总带动》空前成功,这回他们则把布景换到昆虫的天下!本片的导演约翰·拉塞特继《玩具总带动》再度展现高度创意,而且也坦承有一幕大鸟著火的场景灵感是来自于日本动画大师宫崎骏作品《天空之城》。别的在本片的片尾,收录有一段出格建造的NG片断,由昆虫配角们伪装在拍片时碰到吃螺丝、撞墙等状态,实在是非常暴笑!
  1. Media Info:
  2. Format                                   : Matroska
  3. Format version                           : Version 4
  4. File size                                : 50.2 GiB
  5. Duration                                 : 1 h 34 min
  6. Overall bit rate mode                    : Variable
  7. Overall bit rate                         : 75.7 Mb/s
  8. Frame rate                               : 23.976 FPS
  9. Movie name                               : A.Bugs.Life.1998.2160p.BluRay.REMUX.HEVC.DTS-HD.MA.TrueHD.7.1.Atmos-FGT
  10. Encoded date                             : 2020-03-05 04:30:12 UTC
  11. Writing application                      : mkvmerge v43.0.0 ('The Quartermaster') 64-bit
  12. Writing library                          : libebml v1.3.10 + libmatroska v1.5.2
  13. Cover                                    : Yes
  14. Attachments                              : small_cover.jpg / small_cover_land.jpg / cover.jpg / cover_land.jpg
  15. Video
  16. ID                                       : 1
  17. Format                                   : HEVC
  18. Format/Info                              : High Efficiency Video Coding
  19. Format profile                           : Main 10@L5.1@High
  20. HDR format                               : SMPTE ST 2086, HDR10 compatible
  21. Codec ID                                 : V_MPEGH/ISO/HEVC
  22. Duration                                 : 1 h 34 min
  23. Bit rate                                 : 59.7 Mb/s
  24. Width                                    : 3 840 pixels
  25. Height                                   : 2 160 pixels
  26. Display aspect ratio                     : 16:9
  27. Frame rate mode                          : Constant
  28. Frame rate                               : 23.976 (24000/1001) FPS
  29. Color space                              : YUV
  30. Chroma subsampling                       : 4:2:0 (Type 2)
  31. Bit depth                                : 10 bits
  32. Bits/(Pixel*Frame)                       : 0.300
  33. Stream size                              : 39.6 GiB (79%)
  34. Title                                    : A.Bugs.Life.1998.2160p.BluRay.REMUX.HEVC.DTS-HD.MA.TrueHD.7.1.Atmos-FGT
  35. Writing library                          : ATEME Titan File 3.9.0 (4.9.0.0)        
  36. Language                                 : English
  37. Default                                  : No
  38. Forced                                   : No
  39. Color range                              : Limited
  40. Color primaries                          : BT.2020
  41. Transfer characteristics                 : PQ
  42. Matrix coefficients                      : BT.2020 non-constant
  43. Mastering display color primaries        : Display P3
  44. Mastering display luminance              : min: 0.0000 cd/m2, max: 1000 cd/m2
  45. Audio #1
  46. ID                                       : 2
  47. Format                                   : MLP FBA 16-ch
  48. Format/Info                              : Meridian Lossless Packing FBA with 16-channel presentation
  49. Commercial name                          : Dolby TrueHD with Dolby Atmos
  50. Codec ID                                 : A_TRUEHD
  51. Duration                                 : 1 h 34 min
  52. Bit rate mode                            : Variable
  53. Bit rate                                 : 8 178 kb/s
  54. Maximum bit rate                         : 8 088 kb/s
  55. Channel(s)                               : 8 channels
  56. Channel layout                           : L R C LFE Ls Rs Lb Rb
  57. Sampling rate                            : 48.0 kHz
  58. Frame rate                               : 1 200.000 FPS (40 SPF)
  59. Compression mode                         : Lossless
  60. Stream size                              : 5.42 GiB (11%)
  61. Title                                    : A.Bugs.Life.1998.2160p.BluRay.REMUX.HEVC.DTS-HD.MA.TrueHD.7.1.Atmos-FGT
  62. Language                                 : English
  63. Default                                  : Yes
  64. Forced                                   : No
  65. Number of dynamic objects                : 13
  66. Bed channel count                        : 1 channel
  67. Bed channel configuration                : LFE
  68. Audio #2
  69. ID                                       : 3
  70. Format                                   : DTS XLL
  71. Format/Info                              : Digital Theater Systems
  72. Commercial name                          : DTS-HD Master Audio
  73. Codec ID                                 : A_DTS
  74. Duration                                 : 1 h 34 min
  75. Bit rate mode                            : Variable
  76. Bit rate                                 : 4 546 kb/s
  77. Channel(s)                               : 8 channels
  78. Channel layout                           : C L R LFE Lb Rb Lss Rss
  79. Sampling rate                            : 48.0 kHz
  80. Frame rate                               : 93.750 FPS (512 SPF)
  81. Bit depth                                : 24 bits
  82. Compression mode                         : Lossless
  83. Stream size                              : 3.01 GiB (6%)
  84. Title                                    : A.Bugs.Life.1998.2160p.BluRay.REMUX.HEVC.DTS-HD.MA.TrueHD.7.1.Atmos-FGT
  85. Language                                 : English
  86. Default                                  : No
  87. Forced                                   : No
  88. Audio #3
  89. ID                                       : 4
  90. Format                                   : AC-3
  91. Format/Info                              : Audio Coding 3
  92. Commercial name                          : Dolby Digital
  93. Format settings                          : Dolby Surround EX
  94. Codec ID                                 : A_AC3
  95. Duration                                 : 1 h 34 min
  96. Bit rate mode                            : Constant
  97. Bit rate                                 : 640 kb/s
  98. Channel(s)                               : 6 channels
  99. Channel layout                           : L R C LFE Ls Rs
  100. Sampling rate                            : 48.0 kHz
  101. Frame rate                               : 31.250 FPS (1536 SPF)
  102. Compression mode                         : Lossy
  103. Stream size                              : 434 MiB (1%)
  104. Title                                    : A.Bugs.Life.1998.2160p.BluRay.REMUX.HEVC.DTS-HD.MA.TrueHD.7.1.Atmos-FGT
  105. Language                                 : English
  106. Service kind                             : Complete Main
  107. Default                                  : No
  108. Forced                                   : No
  109. AC3_metadata cmixlev                     : -3.0 dB
  110. surmixlev                               : -6 dB
  111. Audio #4
  112. ID                                       : 5
  113. Format                                   : AC-3
  114. Format/Info                              : Audio Coding 3
  115. Commercial name                          : Dolby Digital
  116. Format settings                          : Dolby Surround EX
  117. Codec ID                                 : A_AC3
  118. Duration                                 : 1 h 34 min
  119. Bit rate mode                            : Constant
  120. Bit rate                                 : 640 kb/s
  121. Channel(s)                               : 6 channels
  122. Channel layout                           : L R C LFE Ls Rs
  123. Sampling rate                            : 48.0 kHz
  124. Frame rate                               : 31.250 FPS (1536 SPF)
  125. Compression mode                         : Lossy
  126. Stream size                              : 434 MiB (1%)
  127. Title                                    : A.Bugs.Life.1998.2160p.BluRay.REMUX.HEVC.DTS-HD.MA.TrueHD.7.1.Atmos-FGT
  128. Language                                 : English
  129. Service kind                             : Complete Main
  130. Default                                  : No
  131. Forced                                   : No
  132. AC3_metadata cmixlev                     : -3.0 dB
  133. surmixlev                               : -6 dB
  134. Audio #5
  135. ID                                       : 6
  136. Format                                   : AC-3
  137. Format/Info                              : Audio Coding 3
  138. Commercial name                          : Dolby Digital
  139. Codec ID                                 : A_AC3
  140. Duration                                 : 1 h 34 min
  141. Bit rate mode                            : Constant
  142. Bit rate                                 : 320 kb/s
  143. Channel(s)                               : 2 channels
  144. Channel layout                           : L R
  145. Sampling rate                            : 48.0 kHz
  146. Frame rate                               : 31.250 FPS (1536 SPF)
  147. Compression mode                         : Lossy
  148. Stream size                              : 217 MiB (0%)
  149. Title                                    : A.Bugs.Life.1998.2160p.BluRay.REMUX.HEVC.DTS-HD.MA.TrueHD.7.1.Atmos-FGT
  150. Language                                 : English
  151. Service kind                             : Complete Main
  152. Default                                  : No
  153. Forced                                   : No
  154. Audio #6
  155. ID                                       : 7
  156. Format                                   : AC-3
  157. Format/Info                              : Audio Coding 3
  158. Commercial name                          : Dolby Digital
  159. Codec ID                                 : A_AC3
  160. Duration                                 : 1 h 34 min
  161. Bit rate mode                            : Constant
  162. Bit rate                                 : 320 kb/s
  163. Channel(s)                               : 2 channels
  164. Channel layout                           : L R
  165. Sampling rate                            : 48.0 kHz
  166. Frame rate                               : 31.250 FPS (1536 SPF)
  167. Compression mode                         : Lossy
  168. Stream size                              : 217 MiB (0%)
  169. Title                                    : A.Bugs.Life.1998.2160p.BluRay.REMUX.HEVC.DTS-HD.MA.TrueHD.7.1.Atmos-FGT
  170. Language                                 : English
  171. Service kind                             : Complete Main
  172. Default                                  : No
  173. Forced                                   : No
  174. Audio #7
  175. ID                                       : 8
  176. Format                                   : AC-3
  177. Format/Info                              : Audio Coding 3
  178. Commercial name                          : Dolby Digital
  179. Codec ID                                 : A_AC3
  180. Duration                                 : 1 h 34 min
  181. Bit rate mode                            : Constant
  182. Bit rate                                 : 640 kb/s
  183. Channel(s)                               : 6 channels
  184. Channel layout                           : L R C LFE Ls Rs
  185. Sampling rate                            : 48.0 kHz
  186. Frame rate                               : 31.250 FPS (1536 SPF)
  187. Compression mode                         : Lossy
  188. Delay relative to video                  : 667 ms
  189. Stream size                              : 434 MiB (1%)
  190. Title                                    : A.Bugs.Life.1998.2160p.BluRay.REMUX.HEVC.DTS-HD.MA.TrueHD.7.1.Atmos-FGT
  191. Language                                 : French
  192. Service kind                             : Complete Main
  193. Default                                  : No
  194. Forced                                   : No
  195. AC3_metadata cmixlev                     : -3.0 dB
  196. surmixlev                               : -6 dB
  197. Audio #8
  198. ID                                       : 9
  199. Format                                   : AC-3
  200. Format/Info                              : Audio Coding 3
  201. Commercial name                          : Dolby Digital
  202. Codec ID                                 : A_AC3
  203. Duration                                 : 1 h 34 min
  204. Bit rate mode                            : Constant
  205. Bit rate                                 : 640 kb/s
  206. Channel(s)                               : 6 channels
  207. Channel layout                           : L R C LFE Ls Rs
  208. Sampling rate                            : 48.0 kHz
  209. Frame rate                               : 31.250 FPS (1536 SPF)
  210. Compression mode                         : Lossy
  211. Delay relative to video                  : 667 ms
  212. Stream size                              : 434 MiB (1%)
  213. Title                                    : A.Bugs.Life.1998.2160p.BluRay.REMUX.HEVC.DTS-HD.MA.TrueHD.7.1.Atmos-FGT
  214. Language                                 : Spanish
  215. Service kind                             : Complete Main
  216. Default                                  : No
  217. Forced                                   : No
  218. AC3_metadata cmixlev                     : -3.0 dB
  219. surmixlev                               : -6 dB
  220. Text #1
  221. ID                                       : 10
  222. Format                                   : UTF-8
  223. Codec ID                                 : S_TEXT/UTF8
  224. Codec ID/Info                            : UTF-8 Plain Text
  225. Duration                                 : 1 h 32 min
  226. Bit rate                                 : 69 b/s
  227. Frame rate                               : 0.231 FPS
  228. Count of elements                        : 1282
  229. Stream size                              : 47.4 KiB (0%)
  230. Title                                    : English-SRT
  231. Language                                 : English
  232. Default                                  : Yes
  233. Forced                                   : No
  234. Text #2
  235. ID                                       : 11
  236. Format                                   : PGS
  237. Muxing mode                              : zlib
  238. Codec ID                                 : S_HDMV/PGS
  239. Codec ID/Info                            : Picture based subtitle format used on BDs/HD-DVDs
  240. Duration                                 : 1 h 34 min
  241. Bit rate                                 : 46.4 kb/s
  242. Frame rate                               : 0.527 FPS
  243. Count of elements                        : 2998
  244. Stream size                              : 31.5 MiB (0%)
  245. Language                                 : English
  246. Default                                  : No
  247. Forced                                   : No
  248. Text #3
  249. ID                                       : 12
  250. Format                                   : PGS
  251. Muxing mode                              : zlib
  252. Codec ID                                 : S_HDMV/PGS
  253. Codec ID/Info                            : Picture based subtitle format used on BDs/HD-DVDs
  254. Duration                                 : 1 h 32 min
  255. Bit rate                                 : 40.0 kb/s
  256. Frame rate                               : 0.440 FPS
  257. Count of elements                        : 2436
  258. Stream size                              : 26.4 MiB (0%)
  259. Language                                 : French
  260. Default                                  : No
  261. Forced                                   : No
  262. Text #4
  263. ID                                       : 13
  264. Format                                   : PGS
  265. Muxing mode                              : zlib
  266. Codec ID                                 : S_HDMV/PGS
  267. Codec ID/Info                            : Picture based subtitle format used on BDs/HD-DVDs
  268. Duration                                 : 1 h 32 min
  269. Bit rate                                 : 37.9 kb/s
  270. Frame rate                               : 0.440 FPS
  271. Count of elements                        : 2436
  272. Stream size                              : 25.0 MiB (0%)
  273. Language                                 : Spanish
  274. Default                                  : No
  275. Forced                                   : No
复制代码









回复

使用道具 举报

懒得打字嘛,点击右侧快捷回复 【右侧内容,后台自定义】
您需要登录后才可以回帖 登录 | 立即加入

本版积分规则

Archiver| |网站地图

Copyright © 2024 Comsenz Inc. Powered by 蓝光电影网

本站内容由用户自主分享和转载自互联网,转载目的在于传递更多信息,并不代表本网赞同其观点和对其真实性负责。

如有侵权、违反国家法律政策行为,请联系我们,我们会第一时间及时清除和处理!

举报反馈邮箱:4k1080.com@gmail.com

快速回复 返回顶部 返回列表