找回密码

查看: 2071|回复: 0

[喜剧] 邻居之星 The.Star.Next.Door.2017.KOREAN.ENSUBBED.1080p.AMZN.WEBRip.DDP2.0.x264-HG 6.46GB

[复制链接]
蓝光币
2027
发表于 2022-4-13 22:31:29 | 显示全部楼层 |阅读模式


◎译  名 邻人之星 / 邻家大明星(台) / 邻家明星 / Star Nextdoor / The Star Next Door
◎片  名 ??? ??
◎年  代 2017
◎产  地 韩国
◎类  别 笑剧
◎语  言 韩语
◎上映日期 2017-09-21(韩国)
◎IMDb链接 https://www.imdb.com/title/tt8661098/
◎豆瓣评分 5.1/10 (310人评价)
◎豆瓣链接 https://movie.douban.com/subject/26902034/
◎片  长 99分钟(韩国)
◎导  演 金成旭 Seong-wook Kim (id:1363942)
◎编  剧 金成旭 Seong-wook Kim (id:1363942)
◎演  员 韩彩英 Chae-young Han (id:1218849)
       陈智熙 Ji-hee Jin (id:1275681)
       任瑟雍 Seulong Lim (id:1313005)
       林炯俊 Hyeong-jun Lim (id:1174372)
       郑道元 Do-won Jung (id:1385927)
       金利媛 Ri-won Kim (id:1391385)
       柳妍美 Mi-ryu Yeon (id:1410887)
       李国主 Gook-ju Lee (id:1436237)
◎简  介

  惠美(韓彩英 飾)為韓國家喻戶曉的一流女演員,同時也是演藝圈最強誹聞製造機,近期更被拍到和自己小13歲的小鮮肉男星約會。素恩(陳智熙 飾)是惠美的鄰居,真實的成分是惠美的奥秘私生女,因為媽媽的特别身份,無法像其他人一樣有一般的成長空間。當素恩看到自己最愛的樂團SENSE的團長歐巴居然被拍到和媽媽約會中,決定當自己母親的頭號酸民,在網路上發起黑特文,不顧一切也要阻止這段豪情!究竟素恩和媽媽的這場戰爭,會不會成功呢?
  1. Video
  2. ID                                       : 1
  3. Format                                   : AVC
  4. Format/Info                              : Advanced Video Codec
  5. Format profile                           : [email protected]
  6. Format settings                          : CABAC / 4 Ref Frames
  7. Format settings, CABAC                   : Yes
  8. Format settings, Reference frames        : 4 frames
  9. Codec ID                                 : V_MPEG4/ISO/AVC
  10. Duration                                 : 1 h 38 min
  11. Bit rate mode                            : Constant
  12. Bit rate                                 : 9 166 kb/s
  13. Nominal bit rate                         : 10 000 kb/s
  14. Width                                    : 1 920 pixels
  15. Height                                   : 1 080 pixels
  16. Display aspect ratio                     : 16:9
  17. Frame rate mode                          : Constant
  18. Frame rate                               : 23.976 (24000/1001/189150) FPS
  19. Color space                              : YUV
  20. Chroma subsampling                       : 4:2:0
  21. Bit depth                                : 8 bits
  22. Scan type                                : Progressive
  23. Bits/(Pixel*Frame)                       : 0.184
  24. Stream size                              : 6.30 GiB (98%)
  25. Default                                  : Yes
  26. Forced                                   : No
  27. Color range                              : Limited
  28. Color primaries                          : BT.709
  29. Transfer characteristics                 : BT.709
  30. Matrix coefficients                      : BT.709
  31. Audio
  32. ID                                       : 2
  33. Format                                   : E-AC-3
  34. Format/Info                              : Enhanced AC-3
  35. Commercial name                          : Dolby Digital Plus
  36. Codec ID                                 : A_EAC3
  37. Duration                                 : 1 h 38 min
  38. Bit rate mode                            : Constant
  39. Bit rate                                 : 224 kb/s
  40. Channel(s)                               : 2 channels
  41. Channel layout                           : L R
  42. Sampling rate                            : 48.0 kHz
  43. Frame rate                               : 31.250 FPS (1536 SPF)
  44. Compression mode                         : Lossy
  45. Stream size                              : 158 MiB (2%)
  46. Title                                    : Korean
  47. Language                                 : Korean
  48. Service kind                             : Complete Main
  49. Default                                  : No
  50. Forced                                   : No
  51. Text
  52. ID                                       : 3
  53. Format                                   : UTF-8
  54. Codec ID                                 : S_TEXT/UTF8
  55. Codec ID/Info                            : UTF-8 Plain Text
  56. Duration                                 : 1 h 36 min
  57. Bit rate                                 : 4 b/s
  58. Count of elements                        : 190
  59. Stream size                              : 3.09 KiB (0%)
  60. Title                                    : English
  61. Language                                 : English
  62. Default                                  : No
  63. Forced                                   : No
复制代码





                                       
                                       

                                       
                                       
                                       




回复

使用道具 举报

懒得打字嘛,点击右侧快捷回复 【右侧内容,后台自定义】
您需要登录后才可以回帖 登录 | 立即加入

本版积分规则

Archiver| |网站地图

Copyright © 2024 Comsenz Inc. Powered by 蓝光电影网

本站内容由用户自主分享和转载自互联网,转载目的在于传递更多信息,并不代表本网赞同其观点和对其真实性负责。

如有侵权、违反国家法律政策行为,请联系我们,我们会第一时间及时清除和处理!

举报反馈邮箱:4k1080.com@gmail.com

快速回复 返回顶部 返回列表