找回密码

蓝光电影网

查看: 386|回复: 5

[2160p] 刺猬索尼克2 Sonic.the.Hedgehog.2.2022.2160p.WEB-DL.DDP5.1.Atmos.DV.MKV.x265-DVSUX 12.74GB

[复制链接]
蓝光币
872
发表于 2022-5-17 22:14:24 | 显示全部楼层 |阅读模式


◎译  名 刺猬索尼克2 / 超音鼠大电影2(港) / 音速小子2(台)
◎片  名 Sonic the Hedgehog 2
◎年  代 2022
◎产  地 美国 / 日本
◎类  别 笑剧 / 行动 / 科幻 / 动画 / 冒险
◎语  言 英语
◎上映日期 2022(中国大陆) / 2022-04-08(美国)
◎IMDb链接 https://www.imdb.com/title/tt12412888/
◎豆瓣链接 https://movie.douban.com/subject/35083986/
◎片  长 122分钟
◎导  演 杰夫·福勒 Jeff Fowler (id:1024763)
◎编  剧 帕特里克·凯西 Patrick Casey (id:1427778)
       乔什·米勒 Josh Miller (id:1028358)
       约翰·惠廷顿 John Whittington (id:1368515)
◎演  员 詹姆斯·麦斯登 James Marsden (id:1048023)
       金·凯瑞 Jim Carrey (id:1054438)
       本·施瓦茨 Ben Schwartz (id:1314604)
       提卡·森普特 Tika Sumpter (id:1308681)
       伊德里斯·艾尔巴 Idris Elba (id:1049501)
       娜塔莎·罗斯韦尔 Natasha Rothwell (id:1362240)
       亚当·佩里 Adam Pally (id:1314810)
       谢默·摩尔 Shemar Moore (id:1000060)
       李·马贾道布 Lee Majdoub (id:1235840)
       科琳·欧肖内希 Colleen O'Shaughnessey (id:1127809)
       梅洛德·诺西普·尼曼 Melody Nosipho Niemann (id:1431330)
       汤姆·巴特勒 Tom Butler (id:1328973)
       布拉德·卡利利莫库 Brad Kalilimoku (id:1470005)
       杰夫·桑卡 Jeff Sanca (id:1197200)
       伊丽莎白·鲍恩 Elizabeth Bowen (id:1383583)
       多恩·列夫 Don Lew (id:1303017)
       里斯·威廉姆斯 Rhys Williams (id:1168424)
       西蒙·钱 Simon Chin (id:1194078)
       弗雷泽·科比特 Fraser Corbett (id:1239370)
       奎因·厄利 Quinn Early (id:1263459)
       马库斯·奥雷里奥 Marcus Aurelio (id:1464850)
       尼托·拉里奥萨 Nito Larioza (id:1209344)
       迈克·鲁菲诺 Mike Rufino (id:1304525)
       詹姆斯·兰索恩 James Ransone (id:1147933)
       琼基·XL Junkie XL (id:1037776)
◎简  介

  索尼克在绿丘镇安置下来以后,就急着要证实自己有才能成为一位实在的豪杰。当蛋头博士带着全新的同伴纳克鲁斯,又返来寻觅一块气力强大足以扑灭人类文化的翡翠的时辰,他就面临了另一个严重的考验。此次索尼克和他自己的仆从塔尔斯携手合作,一路踏上一场周游天下的冒险旅程,希望能在那块翡翠落入好人手中之前先找到它。
  1. Video
  2. ID                                       : 1
  3. Format                                   : HEVC
  4. Format/Info                              : High Efficiency Video Coding
  5. Format profile                           : Main [email protected]@High
  6. HDR format                               : Dolby Vision, Version 1.0, dvhe.05.06, BL+RPU
  7. Codec ID                                 : V_MPEGH/ISO/HEVC
  8. Duration                                 : 2 h 2 min
  9. Bit rate                                 : 14.1 Mb/s
  10. Width                                    : 3 840 pixels
  11. Height                                   : 1 606 pixels
  12. Display aspect ratio                     : 2.40:1
  13. Frame rate mode                          : Constant
  14. Frame rate                               : 23.976 (24000/1001/189150) FPS
  15. Color space                              : YUV
  16. Chroma subsampling                       : 4:2:0
  17. Bit depth                                : 10 bits
  18. Bits/(Pixel*Frame)                       : 0.096
  19. Stream size                              : 12.1 GiB (95%)
  20. Language                                 : English
  21. Default                                  : Yes
  22. Forced                                   : No
  23. Audio
  24. ID                                       : 2
  25. Format                                   : E-AC-3 JOC
  26. Format/Info                              : Enhanced AC-3 with Joint Object Coding
  27. Commercial name                          : Dolby Digital Plus with Dolby Atmos
  28. Codec ID                                 : A_EAC3
  29. Duration                                 : 2 h 2 min
  30. Bit rate mode                            : Constant
  31. Bit rate                                 : 768 kb/s
  32. Channel(s)                               : 6 channels
  33. Channel layout                           : L R C LFE Ls Rs
  34. Sampling rate                            : 48.0 kHz
  35. Frame rate                               : 31.250 FPS (1536 SPF)
  36. Compression mode                         : Lossy
  37. Stream size                              : 672 MiB (5%)
  38. Language                                 : English
  39. Service kind                             : Complete Main
  40. Default                                  : Yes
  41. Forced                                   : No
  42. Complexity index                         : 16
  43. Number of dynamic objects                : 15
  44. Bed channel count                        : 1 channel
  45. Bed channel configuration                : LFE
  46. Text #1
  47. ID                                       : 3
  48. Format                                   : UTF-8
  49. Codec ID                                 : S_TEXT/UTF8
  50. Codec ID/Info                            : UTF-8 Plain Text
  51. Duration                                 : 42 min 25 s
  52. Bit rate                                 : 0 b/s
  53. Count of elements                        : 7
  54. Stream size                              : 170 Bytes (0%)
  55. Title                                    : FORCED
  56. Language                                 : English
  57. Default                                  : No
  58. Forced                                   : Yes
  59. Text #2
  60. ID                                       : 4
  61. Format                                   : UTF-8
  62. Codec ID                                 : S_TEXT/UTF8
  63. Codec ID/Info                            : UTF-8 Plain Text
  64. Duration                                 : 1 h 52 min
  65. Bit rate                                 : 60 b/s
  66. Count of elements                        : 1647
  67. Stream size                              : 49.6 KiB (0%)
  68. Language                                 : English
  69. Default                                  : Yes
  70. Forced                                   : No
  71. Text #3
  72. ID                                       : 5
  73. Format                                   : UTF-8
  74. Codec ID                                 : S_TEXT/UTF8
  75. Codec ID/Info                            : UTF-8 Plain Text
  76. Duration                                 : 1 h 52 min
  77. Bit rate                                 : 68 b/s
  78. Count of elements                        : 1983
  79. Stream size                              : 56.3 KiB (0%)
  80. Title                                    : SDH
  81. Language                                 : English
  82. Default                                  : No
  83. Forced                                   : No
  84. Text #4
  85. ID                                       : 6
  86. Format                                   : UTF-8
  87. Codec ID                                 : S_TEXT/UTF8
  88. Codec ID/Info                            : UTF-8 Plain Text
  89. Duration                                 : 2 h 1 min
  90. Bit rate                                 : 48 b/s
  91. Count of elements                        : 1384
  92. Stream size                              : 43.4 KiB (0%)
  93. Language                                 : Korean
  94. Default                                  : No
  95. Forced                                   : No
  96. Text #5
  97. ID                                       : 7
  98. Format                                   : UTF-8
  99. Codec ID                                 : S_TEXT/UTF8
  100. Codec ID/Info                            : UTF-8 Plain Text
  101. Duration                                 : 2 h 1 min
  102. Bit rate                                 : 47 b/s
  103. Count of elements                        : 1366
  104. Stream size                              : 42.0 KiB (0%)
  105. Title                                    : zh-Hant
  106. Language                                 : Chinese
  107. Default                                  : No
  108. Forced                                   : No
复制代码






                                       
                                       

                                       
                                       
                                       




回复

使用道具 举报

蓝光币
72
发表于 2022-5-18 00:24:21 | 显示全部楼层

楼主太厉害了!楼主,电影应该很好看我觉得蓝光电影网真是个好地方!
回复 支持 反对

使用道具 举报

蓝光币
52
发表于 2022-5-18 01:15:24 | 显示全部楼层

这东西我收了!谢谢楼主!蓝光电影网真好!
回复 支持 反对

使用道具 举报

蓝光币
85
发表于 2022-5-18 08:29:00 | 显示全部楼层
非常不错,谢谢
回复 支持 反对

使用道具 举报

蓝光币
91
发表于 2022-5-18 09:15:01 | 显示全部楼层
这个好 喜欢看 不错不错
回复 支持 反对

使用道具 举报

蓝光币
890
发表于 2022-5-18 11:02:29 | 显示全部楼层
不错,收下了。
回复 支持 反对

使用道具 举报

懒得打字嘛,点击右侧快捷回复 【右侧内容,后台自定义】
您需要登录后才可以回帖 登录 | 立即加入

本版积分规则

Archiver|小黑屋| 蓝光电影网 |网站地图

Copyright © 2021 Comsenz Inc. Powered by 蓝光电影网

蓝光电影网

本站内容由用户自主分享和转载自互联网,转载目的在于传递更多信息,并不代表本网赞同其观点和对其真实性负责。

如有侵权、违反国家法律政策行为,请联系我们,我们会第一时间及时清除和处理!

举报反馈邮箱:[email protected]

快速回复 返回顶部 返回列表