找回密码

蓝光电影网

查看: 230|回复: 4

[10bit.HDR] 魔女游戏[简繁英字幕].The.Craft.1996.2160p.HDR.UHD.BluRay.DTS-HD.MA.5.1.x265-10bit-ENTHD 15.73GB

[复制链接]
蓝光币
5
发表于 2022-5-22 01:51:11 | 显示全部楼层 |阅读模式
魔女游戏[简繁英字幕].The.Craft.1996.2160p.HDR.UHD.BluRay.DTS-HD.MA.5.1.x265-10bit-ENTHD 15.73GB-1.jpeg

◎译  名 魔女游戏 / 着魔天使 / 同好者行会
◎片  名 The Craft
◎年  代 1996
◎产  地 美国
◎类  别 剧情 / 惊悚 / 可骇 / 奇异
◎语  言 英语 / 法语
◎上映日期 1996-05-03
◎IMDb链接 https://www.imdb.com/title/tt0115963/
◎豆瓣评分 6.4/10 (1124人评价)
◎豆瓣链接 https://movie.douban.com/subject/1293441/
◎片  长 101 分钟
◎导  演 安德鲁·弗莱明 Andrew Fleming
◎编  剧 安德鲁·弗莱明 Andrew Fleming
       彼得·费拉迪 Peter Filardi
◎演  员 罗宾·汤尼 Robin Tunney
       费尔鲁扎·鲍克 Fairuza Balk
       内芙·坎贝尔 Neve Campbell
       斯基特·乌尔里奇 Skeet Ulrich
       蕾切尔·楚 Rachel True
       克里斯蒂娜·泰勒 Christine Taylor
       布瑞金·梅耶 Breckin Meyer
       纳萨尼尔·马斯顿 Nathaniel Marston
       阿松波塔·塞尔纳 Assumpta Serna
       海伦·谢费 Helen Shaver
       布兰达·斯特朗 Brenda Strong
       伊斯特·斯高特 Esther Scott
       安德烈·胡勒斯 Endre Hules
       托尼·吉纳罗 Tony Genaro
       杰森·费拉尔迪 Jason Filardi
       道格拉斯·威克 Douglas Wick
       Jeff Freeman Jeff Freeman
       Pam Dixon Pam Dixon
       Marek Dobrowolski Marek Dobrowolski
       南希·奈 Nancy Nye
       黛博拉·埃弗顿 Deborah Everton
       托尼·加德纳 Tony Gardner
       Michelle Vittone Michelle Vittone
       比特丽斯·德·阿尔巴 Beatrice De Alba
       Barbara M. Ravis Barbara M. Ravis
       罗宾·格里芬 Robin Griffin
       曼尼·王 Manny Wong
       大卫·绍布 David Schaub
       David Drzewiecki David Drzewiecki
       Mark Holmes Mark Holmes
◎简  介
  16岁的少女萨拉·贝利(Robin Tunney 饰)表面阳光美丽,却具有不为人知的疾苦曩昔。为了寻觅生活的希望,她随父亲(Cliff De Young 饰)和继母从旧金山搬到了位于洛杉矶的一座城市,并在当地一所教会黉舍继续学业。在这里她碰见三个打扮和举止都很怪异的女孩——(费尔鲁扎·鲍克 Fairuza Balk 饰)、邦妮(Neve Campbell 饰)和罗谢丽(Rachel True 饰)。四周的门生没有一个愿意与她们交往,甚至盛传他们就是可骇的女巫。萨拉无意间展现出的超才能引发南希等人的留意,这四个本质上有着不异气质的女孩很快便走到一路。                                    
                                他们希望呼唤万物之灵马农(Manon),让其进入自己的身材,由此可以使糟糕的生活变得好转起来。只是,天下上绝对没有免费的午饭……
  1. ##### MediaInfo ######
  2. General
  3. Unique ID                                : 162500792959440617670424618793917087485 (0x7A4083AA213ED126BDD7A9948FB9FEFD)
  4. Complete name                            : The.Craft.1996.2160p.HDR.UHD.BluRay.DTS-HD.MA.5.1.x265-10bit-ENTHD.mkv
  5. Format                                   : Matroska
  6. Format version                           : Version 4
  7. File size                                : 15.7 GiB
  8. Duration                                 : 1 h 40 min
  9. Overall bit rate mode                    : Variable
  10. Overall bit rate                         : 22.3 Mb/s
  11. Movie name                               : The Craft 1996 2160p HDR UHD BluRay DTS-HD MA 5.1 x265-10bit-HDS
  12. Encoded date                             : UTC 2022-05-20 16:27:14
  13. Writing application                      : mkvmerge v67.0.0 ('Under Stars') 64-bit
  14. Writing library                          : libebml v1.4.2 + libmatroska v1.6.4
  15. Video
  16. ID                                       : 1
  17. Format                                   : HEVC
  18. Format/Info                              : High Efficiency Video Coding
  19. Format profile                           : Main [email][email protected][/email]@High
  20. HDR format                               : SMPTE ST 2086, HDR10 compatible
  21. Codec ID                                 : V_MPEGH/ISO/HEVC
  22. Duration                                 : 1 h 40 min
  23. Bit rate                                 : 17.9 Mb/s
  24. Width                                    : 3 840 pixels
  25. Height                                   : 2 072 pixels
  26. Display aspect ratio                     : 1.85:1
  27. Frame rate mode                          : Constant
  28. Frame rate                               : 23.976 (24000/1001/53875) FPS
  29. Color space                              : YUV
  30. Chroma subsampling                       : 4:2:0
  31. Bit depth                                : 10 bits
  32. Bits/(Pixel*Frame)                       : 0.094
  33. Stream size                              : 12.6 GiB (80%)
  34. Title                                    : @HDSky
  35. Writing library                          : x265 - H.265/HEVC codec
  36. Default                                  : Yes
  37. Forced                                   : No
  38. Color range                              : Limited
  39. Color primaries                          : BT.2020
  40. Transfer characteristics                 : PQ
  41. Matrix coefficients                      : BT.2020 non-constant
  42. Mastering display color primaries        : Display P3
  43. Mastering display luminance              : min: 0.0050 cd/m2, max: 1000 cd/m2
  44. Maximum Content Light Level              : 3991 cd/m2
  45. Maximum Frame-Average Light Level        : 664 cd/m2
  46. Audio
  47. ID                                       : 2
  48. Format                                   : DTS XLL
  49. Format/Info                              : Digital Theater Systems
  50. Commercial name                          : DTS-HD Master Audio
  51. Codec ID                                 : A_DTS
  52. Duration                                 : 1 h 40 min
  53. Bit rate mode                            : Variable
  54. Bit rate                                 : 4 364 kb/s
  55. Channel(s)                               : 6 channels
  56. Channel layout                           : C L R Ls Rs LFE
  57. Sampling rate                            : 48.0 kHz
  58. Frame rate                               : 93.750 FPS (512 SPF)
  59. Bit depth                                : 24 bits
  60. Compression mode                         : Lossless
  61. Stream size                              : 3.08 GiB (20%)
  62. Title                                    : English
  63. Language                                 : English
  64. Default                                  : Yes
  65. Forced                                   : No
  66. Text #1
  67. ID                                       : 3
  68. Format                                   : PGS
  69. Muxing mode                              : zlib
  70. Codec ID                                 : S_HDMV/PGS
  71. Codec ID/Info                            : Picture based subtitle format used on BDs/HD-DVDs
  72. Duration                                 : 1 h 40 min
  73. Bit rate                                 : 37.0 kb/s
  74. Count of elements                        : 2594
  75. Stream size                              : 26.6 MiB (0%)
  76. Title                                    : ENG
  77. Language                                 : English
  78. Default                                  : Yes
  79. Forced                                   : No
  80. Text #2
  81. ID                                       : 4
  82. Format                                   : PGS
  83. Muxing mode                              : zlib
  84. Codec ID                                 : S_HDMV/PGS
  85. Codec ID/Info                            : Picture based subtitle format used on BDs/HD-DVDs
  86. Duration                                 : 1 h 36 min
  87. Bit rate                                 : 16.4 kb/s
  88. Count of elements                        : 2522
  89. Stream size                              : 11.3 MiB (0%)
  90. Title                                    : CHS
  91. Language                                 : Chinese
  92. Default                                  : Yes
  93. Forced                                   : No
  94. Text #3
  95. ID                                       : 5
  96. Format                                   : PGS
  97. Muxing mode                              : zlib
  98. Codec ID                                 : S_HDMV/PGS
  99. Codec ID/Info                            : Picture based subtitle format used on BDs/HD-DVDs
  100. Duration                                 : 1 h 36 min
  101. Bit rate                                 : 16.8 kb/s
  102. Count of elements                        : 2522
  103. Stream size                              : 11.6 MiB (0%)
  104. Title                                    : CHT
  105. Language                                 : Chinese
  106. Default                                  : Yes
  107. Forced                                   : No
  108. Menu
  109. 00:00:00.000                             : en:第 01 章
  110. 00:09:00.790                             : en:第 02 章
  111. 00:17:28.965                             : en:第 03 章
  112. 00:26:16.950                             : en:第 04 章
  113. 00:35:03.268                             : en:第 05 章
  114. 00:43:14.884                             : en:第 06 章
  115. 00:51:32.339                             : en:第 07 章
  116. 00:59:22.684                             : en:第 08 章
  117. 01:06:51.925                             : en:第 09 章
  118. 01:15:35.823                             : en:第 10 章
  119. 01:22:38.579                             : en:第 11 章
  120. 01:28:28.720                             : en:第 12 章
复制代码


魔女游戏[简繁英字幕].The.Craft.1996.2160p.HDR.UHD.BluRay.DTS-HD.MA.5.1.x265-10bit-ENTHD 15.73GB-2.jpeg
魔女游戏[简繁英字幕].The.Craft.1996.2160p.HDR.UHD.BluRay.DTS-HD.MA.5.1.x265-10bit-ENTHD 15.73GB-3.jpeg
魔女游戏[简繁英字幕].The.Craft.1996.2160p.HDR.UHD.BluRay.DTS-HD.MA.5.1.x265-10bit-ENTHD 15.73GB-4.jpeg
魔女游戏[简繁英字幕].The.Craft.1996.2160p.HDR.UHD.BluRay.DTS-HD.MA.5.1.x265-10bit-ENTHD 15.73GB-5.jpeg
魔女游戏[简繁英字幕].The.Craft.1996.2160p.HDR.UHD.BluRay.DTS-HD.MA.5.1.x265-10bit-ENTHD 15.73GB-6.jpeg
魔女游戏[简繁英字幕].The.Craft.1996.2160p.HDR.UHD.BluRay.DTS-HD.MA.5.1.x265-10bit-ENTHD 15.73GB-7.jpeg









回复

使用道具 举报

蓝光币
1785
发表于 2022-5-22 13:53:22 | 显示全部楼层

这东西我收了!谢谢楼主!蓝光电影网真好!
回复 支持 反对

使用道具 举报

蓝光币
4
发表于 2022-5-22 15:08:21 | 显示全部楼层

我看不错噢 谢谢楼主!蓝光电影网越来越好!
回复 支持 反对

使用道具 举报

蓝光币
321
发表于 2022-5-23 14:05:15 | 显示全部楼层

既然你诚信诚意的推荐了,那我就勉为其难的看看吧!蓝光电影网不走平凡路。
回复 支持 反对

使用道具 举报

蓝光币
4
发表于 2022-5-24 13:39:59 | 显示全部楼层


我看不错噢 谢谢楼主!蓝光电影网越来越好!
回复 支持 反对

使用道具 举报

懒得打字嘛,点击右侧快捷回复 【右侧内容,后台自定义】
您需要登录后才可以回帖 登录 | 立即加入

本版积分规则

Archiver|小黑屋| 蓝光电影网 |网站地图

Copyright © 2021 Comsenz Inc. Powered by 蓝光电影网

蓝光电影网

本站内容由用户自主分享和转载自互联网,转载目的在于传递更多信息,并不代表本网赞同其观点和对其真实性负责。

如有侵权、违反国家法律政策行为,请联系我们,我们会第一时间及时清除和处理!

举报反馈邮箱:[email protected]

快速回复 返回顶部 返回列表