找回密码

蓝光电影网

查看: 2001|回复: 41

[剧情] 咒[国语音轨/简繁英字幕].Incantation.2022.1080p.NF.WEB-DL.DDP.5.1.H.264-CHDWEB 5.47GB

[复制链接]
蓝光币
7
发表于 2022-7-14 01:40:32 | 显示全部楼层 |阅读模式


◎标  题 咒
◎译  名 Incantation
◎年  代 2022
◎产  地 中国台湾
◎类  别 可骇
◎语  言 汉语普通话
◎上映日期 2022-03-18(中国台湾) / 2022-07-08(中国台湾收集)
◎IMDb链接 https://www.imdb.com/title/tt18968540/
◎豆瓣评分 8.0/10 (1624人评价)
◎豆瓣链接 https://movie.douban.com/subject/34850561/
◎片  长 110分钟
◎导  演 柯孟融 Kevin Ko
◎编  剧 柯孟融 Kevin Ko
◎演  员 蔡亘晏 Ken-yen Tsai
       高英轩 Ven Kao
       林敬伦 Sean Lin
       温庆禹
       黄歆庭 Xinting Huang
       陈克勤 Ko Chin Chen
       陈若宇
◎简  介
  若男和朋友组成影象团队,六年前闯入邪教仪式中的禁地,惹恼了沉睡的邪灵,一切人持续不断古怪死于横死。                                    
                                本片改编自觉生在高雄的实在事务,那时一家六口自认被神明附身,百口人发狂似的起乩,甚至自残等各种古怪行动,最初更致使有家庭成员灭亡。
  1. ##### MediaInfo ######
  2. General
  3. Unique ID                                : 181829766440893539156664681672306933795 (0x88CB23A2693845C2CD020BC22F614023)
  4. Complete name                            : Incantation.2022.1080p.NF.WEB-DL.DDP.5.1.H.264-CHDWEB.mkv
  5. Format                                   : Matroska
  6. Format version                           : Version 4
  7. File size                                : 5.47 GiB
  8. Duration                                 : 1 h 51 min
  9. Overall bit rate mode                    : Variable
  10. Overall bit rate                         : 7 030 kb/s
  11. Encoded date                             : UTC 2022-07-08 07:06:31
  12. Writing application                      : mkvmerge v67.0.0 ('Under Stars') 64-bit
  13. Writing library                          : libebml v1.4.2 + libmatroska v1.6.4
  14. Video
  15. ID                                       : 1
  16. Format                                   : AVC
  17. Format/Info                              : Advanced Video Codec
  18. Format profile                           : [email protected]
  19. Format settings                          : CABAC / 4 Ref Frames
  20. Format settings, CABAC                   : Yes
  21. Format settings, Reference frames        : 4 frames
  22. Codec ID                                 : V_MPEG4/ISO/AVC
  23. Duration                                 : 1 h 51 min
  24. Bit rate mode                            : Variable
  25. Bit rate                                 : 6 386 kb/s
  26. Maximum bit rate                         : 20.0 Mb/s
  27. Width                                    : 1 920 pixels
  28. Height                                   : 1 080 pixels
  29. Display aspect ratio                     : 16:9
  30. Frame rate mode                          : Constant
  31. Frame rate                               : 24.000 FPS
  32. Color space                              : YUV
  33. Chroma subsampling                       : 4:2:0
  34. Bit depth                                : 8 bits
  35. Scan type                                : Progressive
  36. Bits/(Pixel*Frame)                       : 0.128
  37. Stream size                              : 4.97 GiB (91%)
  38. Writing library                          : x264 core 148 r2727 7d026e8
  39. Encoding settings                        : cabac=1 / ref=4 / deblock=1:0:0 / analyse=0x3:0x111 / me=umh / subme=10 / psy=1 / psy_rd=1.00:0.00 / mixed_ref=1 / me_range=120 / chroma_me=1 / trellis=2 / 8x8dct=1 / cqm=0 / deadzone=21,11 / fast_pskip=1 / chroma_qp_offset=-2 / threads=8 / lookahead_threads=2 / sliced_threads=0 / nr=0 / decimate=1 / interlaced=0 / NTM4NzU= / bluray_compat=0 / stitchable=1 / constrained_intra=0 / bframes=16 / b_pyramid=2 / b_adapt=2 / b_bias=0 / direct=3 / weightb=1 / open_gop=0 / weightp=2 / keyint=240 / keyint_min=121 / scenecut=0 / intra_refresh=0 / rc_lookahead=240 / rc=crf / mbtree=1 / crf=18.0 / qcomp=0.50 / qpmin=6 / qpmax=51 / qpstep=4 / vbv_maxrate=20000 / vbv_bufsize=25000 / crf_max=0.0 / nal_hrd=vbr / filler=0 / NTM4NzU=LmsMAP37EqsCpk / ip_ratio=1.40 / aq=1:0.80
  40. Language                                 : Chinese
  41. Default                                  : Yes
  42. Forced                                   : No
  43. Audio
  44. ID                                       : 2
  45. Format                                   : E-AC-3
  46. Format/Info                              : Enhanced AC-3
  47. Commercial name                          : Dolby Digital Plus
  48. Codec ID                                 : A_EAC3
  49. Duration                                 : 1 h 51 min
  50. Bit rate mode                            : Constant
  51. Bit rate                                 : 640 kb/s
  52. Channel(s)                               : 6 channels
  53. Channel layout                           : L R C LFE Ls Rs
  54. Sampling rate                            : 48.0 kHz
  55. Frame rate                               : 31.250 FPS (1536 SPF)
  56. Compression mode                         : Lossy
  57. Stream size                              : 510 MiB (9%)
  58. Title                                    : Taiwan
  59. Language                                 : Chinese
  60. Service kind                             : Complete Main
  61. Default                                  : Yes
  62. Forced                                   : No
  63. Text #1
  64. ID                                       : 3
  65. Format                                   : UTF-8
  66. Codec ID                                 : S_TEXT/UTF8
  67. Codec ID/Info                            : UTF-8 Plain Text
  68. Duration                                 : 1 h 46 min
  69. Bit rate                                 : 42 b/s
  70. Count of elements                        : 1365
  71. Stream size                              : 33.3 KiB (0%)
  72. Title                                    : Traditional
  73. Language                                 : Chinese
  74. Default                                  : No
  75. Forced                                   : No
  76. Text #2
  77. ID                                       : 4
  78. Format                                   : UTF-8
  79. Codec ID                                 : S_TEXT/UTF8
  80. Codec ID/Info                            : UTF-8 Plain Text
  81. Duration                                 : 1 h 50 min
  82. Bit rate                                 : 41 b/s
  83. Count of elements                        : 1391
  84. Stream size                              : 33.4 KiB (0%)
  85. Title                                    : Simplified
  86. Language                                 : Chinese
  87. Default                                  : No
  88. Forced                                   : No
  89. Text #3
  90. ID                                       : 5
  91. Format                                   : UTF-8
  92. Codec ID                                 : S_TEXT/UTF8
  93. Codec ID/Info                            : UTF-8 Plain Text
  94. Duration                                 : 1 h 50 min
  95. Bit rate                                 : 61 b/s
  96. Count of elements                        : 1363
  97. Stream size                              : 49.5 KiB (0%)
  98. Language                                 : Arabic
  99. Default                                  : No
  100. Forced                                   : No
  101. Text #4
  102. ID                                       : 6
  103. Format                                   : UTF-8
  104. Codec ID                                 : S_TEXT/UTF8
  105. Codec ID/Info                            : UTF-8 Plain Text
  106. Duration                                 : 1 h 50 min
  107. Bit rate                                 : 35 b/s
  108. Count of elements                        : 1363
  109. Stream size                              : 28.9 KiB (0%)
  110. Language                                 : Danish
  111. Default                                  : No
  112. Forced                                   : No
  113. Text #5
  114. ID                                       : 7
  115. Format                                   : UTF-8
  116. Codec ID                                 : S_TEXT/UTF8
  117. Codec ID/Info                            : UTF-8 Plain Text
  118. Duration                                 : 1 h 50 min
  119. Bit rate                                 : 39 b/s
  120. Count of elements                        : 1327
  121. Stream size                              : 32.0 KiB (0%)
  122. Language                                 : German
  123. Default                                  : No
  124. Forced                                   : No
  125. Text #6
  126. ID                                       : 8
  127. Format                                   : UTF-8
  128. Codec ID                                 : S_TEXT/UTF8
  129. Codec ID/Info                            : UTF-8 Plain Text
  130. Duration                                 : 1 h 50 min
  131. Bit rate                                 : 62 b/s
  132. Count of elements                        : 1364
  133. Stream size                              : 50.4 KiB (0%)
  134. Language                                 : Greek
  135. Default                                  : No
  136. Forced                                   : No
  137. Text #7
  138. ID                                       : 9
  139. Format                                   : UTF-8
  140. Codec ID                                 : S_TEXT/UTF8
  141. Codec ID/Info                            : UTF-8 Plain Text
  142. Duration                                 : 1 h 46 min
  143. Bit rate                                 : 60 b/s
  144. Count of elements                        : 1743
  145. Stream size                              : 47.2 KiB (0%)
  146. Title                                    : SDH
  147. Language                                 : English
  148. Default                                  : No
  149. Forced                                   : No
  150. Text #8
  151. ID                                       : 10
  152. Format                                   : UTF-8
  153. Codec ID                                 : S_TEXT/UTF8
  154. Codec ID/Info                            : UTF-8 Plain Text
  155. Duration                                 : 1 h 46 min
  156. Bit rate                                 : 46 b/s
  157. Count of elements                        : 1370
  158. Stream size                              : 36.6 KiB (0%)
  159. Language                                 : English
  160. Default                                  : No
  161. Forced                                   : No
  162. Text #9
  163. ID                                       : 11
  164. Format                                   : UTF-8
  165. Codec ID                                 : S_TEXT/UTF8
  166. Codec ID/Info                            : UTF-8 Plain Text
  167. Duration                                 : 1 h 46 min
  168. Bit rate                                 : 37 b/s
  169. Count of elements                        : 1342
  170. Stream size                              : 29.2 KiB (0%)
  171. Language                                 : English
  172. Default                                  : No
  173. Forced                                   : No
  174. Text #10
  175. ID                                       : 12
  176. Format                                   : UTF-8
  177. Codec ID                                 : S_TEXT/UTF8
  178. Codec ID/Info                            : UTF-8 Plain Text
  179. Duration                                 : 1 h 50 min
  180. Bit rate                                 : 36 b/s
  181. Count of elements                        : 1350
  182. Stream size                              : 29.4 KiB (0%)
  183. Language                                 : Spanish
  184. Default                                  : No
  185. Forced                                   : No
  186. Text #11
  187. ID                                       : 13
  188. Format                                   : UTF-8
  189. Codec ID                                 : S_TEXT/UTF8
  190. Codec ID/Info                            : UTF-8 Plain Text
  191. Duration                                 : 1 h 50 min
  192. Bit rate                                 : 37 b/s
  193. Count of elements                        : 1356
  194. Stream size                              : 30.1 KiB (0%)
  195. Title                                    : Europe
  196. Language                                 : Spanish
  197. Default                                  : No
  198. Forced                                   : No
  199. Text #12
  200. ID                                       : 14
  201. Format                                   : UTF-8
  202. Codec ID                                 : S_TEXT/UTF8
  203. Codec ID/Info                            : UTF-8 Plain Text
  204. Duration                                 : 1 h 50 min
  205. Bit rate                                 : 35 b/s
  206. Count of elements                        : 1360
  207. Stream size                              : 28.8 KiB (0%)
  208. Language                                 : Finnish
  209. Default                                  : No
  210. Forced                                   : No
  211. Text #13
  212. ID                                       : 15
  213. Format                                   : UTF-8
  214. Codec ID                                 : S_TEXT/UTF8
  215. Codec ID/Info                            : UTF-8 Plain Text
  216. Duration                                 : 1 h 50 min
  217. Bit rate                                 : 39 b/s
  218. Count of elements                        : 1340
  219. Stream size                              : 31.8 KiB (0%)
  220. Language                                 : French
  221. Default                                  : No
  222. Forced                                   : No
  223. Text #14
  224. ID                                       : 16
  225. Format                                   : UTF-8
  226. Codec ID                                 : S_TEXT/UTF8
  227. Codec ID/Info                            : UTF-8 Plain Text
  228. Duration                                 : 1 h 46 min
  229. Bit rate                                 : 58 b/s
  230. Count of elements                        : 1361
  231. Stream size                              : 45.9 KiB (0%)
  232. Language                                 : Hebrew
  233. Default                                  : No
  234. Forced                                   : No
  235. Text #15
  236. ID                                       : 17
  237. Format                                   : UTF-8
  238. Codec ID                                 : S_TEXT/UTF8
  239. Codec ID/Info                            : UTF-8 Plain Text
  240. Duration                                 : 1 h 50 min
  241. Bit rate                                 : 37 b/s
  242. Count of elements                        : 1358
  243. Stream size                              : 30.1 KiB (0%)
  244. Language                                 : Indonesian
  245. Default                                  : No
  246. Forced                                   : No
  247. Text #16
  248. ID                                       : 18
  249. Format                                   : UTF-8
  250. Codec ID                                 : S_TEXT/UTF8
  251. Codec ID/Info                            : UTF-8 Plain Text
  252. Duration                                 : 1 h 50 min
  253. Bit rate                                 : 34 b/s
  254. Count of elements                        : 1345
  255. Stream size                              : 28.4 KiB (0%)
  256. Language                                 : Italian
  257. Default                                  : No
  258. Forced                                   : No
  259. Text #17
  260. ID                                       : 19
  261. Format                                   : UTF-8
  262. Codec ID                                 : S_TEXT/UTF8
  263. Codec ID/Info                            : UTF-8 Plain Text
  264. Duration                                 : 1 h 50 min
  265. Bit rate                                 : 42 b/s
  266. Count of elements                        : 1173
  267. Stream size                              : 34.7 KiB (0%)
  268. Language                                 : Japanese
  269. Default                                  : No
  270. Forced                                   : No
  271. Text #18
  272. ID                                       : 20
  273. Format                                   : UTF-8
  274. Codec ID                                 : S_TEXT/UTF8
  275. Codec ID/Info                            : UTF-8 Plain Text
  276. Duration                                 : 1 h 50 min
  277. Bit rate                                 : 46 b/s
  278. Count of elements                        : 1305
  279. Stream size                              : 37.4 KiB (0%)
  280. Language                                 : Korean
  281. Default                                  : No
  282. Forced                                   : No
  283. Text #19
  284. ID                                       : 21
  285. Format                                   : UTF-8
  286. Codec ID                                 : S_TEXT/UTF8
  287. Codec ID/Info                            : UTF-8 Plain Text
  288. Duration                                 : 1 h 50 min
  289. Bit rate                                 : 37 b/s
  290. Count of elements                        : 1363
  291. Stream size                              : 30.7 KiB (0%)
  292. Language                                 : Malay
  293. Default                                  : No
  294. Forced                                   : No
  295. Text #20
  296. ID                                       : 22
  297. Format                                   : UTF-8
  298. Codec ID                                 : S_TEXT/UTF8
  299. Codec ID/Info                            : UTF-8 Plain Text
  300. Duration                                 : 1 h 50 min
  301. Bit rate                                 : 35 b/s
  302. Count of elements                        : 1363
  303. Stream size                              : 29.0 KiB (0%)
  304. Language                                 : Dutch
  305. Default                                  : No
  306. Forced                                   : No
  307. Text #21
  308. ID                                       : 23
  309. Format                                   : UTF-8
  310. Codec ID                                 : S_TEXT/UTF8
  311. Codec ID/Info                            : UTF-8 Plain Text
  312. Duration                                 : 1 h 50 min
  313. Bit rate                                 : 34 b/s
  314. Count of elements                        : 1363
  315. Stream size                              : 28.1 KiB (0%)
  316. Language                                 : Polish
  317. Default                                  : No
  318. Forced                                   : No
  319. Text #22
  320. ID                                       : 24
  321. Format                                   : UTF-8
  322. Codec ID                                 : S_TEXT/UTF8
  323. Codec ID/Info                            : UTF-8 Plain Text
  324. Duration                                 : 1 h 50 min
  325. Bit rate                                 : 36 b/s
  326. Count of elements                        : 1364
  327. Stream size                              : 29.7 KiB (0%)
  328. Language                                 : Portuguese
  329. Default                                  : No
  330. Forced                                   : No
  331. Text #23
  332. ID                                       : 25
  333. Format                                   : UTF-8
  334. Codec ID                                 : S_TEXT/UTF8
  335. Codec ID/Info                            : UTF-8 Plain Text
  336. Duration                                 : 1 h 50 min
  337. Bit rate                                 : 32 b/s
  338. Count of elements                        : 1312
  339. Stream size                              : 26.5 KiB (0%)
  340. Title                                    : Brazil
  341. Language                                 : Portuguese
  342. Default                                  : No
  343. Forced                                   : No
  344. Text #24
  345. ID                                       : 26
  346. Format                                   : UTF-8
  347. Codec ID                                 : S_TEXT/UTF8
  348. Codec ID/Info                            : UTF-8 Plain Text
  349. Duration                                 : 1 h 50 min
  350. Bit rate                                 : 39 b/s
  351. Count of elements                        : 1317
  352. Stream size                              : 32.4 KiB (0%)
  353. Language                                 : Romanian
  354. Default                                  : No
  355. Forced                                   : No
  356. Text #25
  357. ID                                       : 27
  358. Format                                   : UTF-8
  359. Codec ID                                 : S_TEXT/UTF8
  360. Codec ID/Info                            : UTF-8 Plain Text
  361. Duration                                 : 1 h 50 min
  362. Bit rate                                 : 35 b/s
  363. Count of elements                        : 1363
  364. Stream size                              : 28.8 KiB (0%)
  365. Language                                 : Swedish
  366. Default                                  : No
  367. Forced                                   : No
  368. Text #26
  369. ID                                       : 28
  370. Format                                   : UTF-8
  371. Codec ID                                 : S_TEXT/UTF8
  372. Codec ID/Info                            : UTF-8 Plain Text
  373. Duration                                 : 1 h 50 min
  374. Bit rate                                 : 92 b/s
  375. Count of elements                        : 1363
  376. Stream size                              : 75.2 KiB (0%)
  377. Language                                 : Thai
  378. Default                                  : No
  379. Forced                                   : No
  380. Text #27
  381. ID                                       : 29
  382. Format                                   : UTF-8
  383. Codec ID                                 : S_TEXT/UTF8
  384. Codec ID/Info                            : UTF-8 Plain Text
  385. Duration                                 : 1 h 50 min
  386. Bit rate                                 : 35 b/s
  387. Count of elements                        : 1363
  388. Stream size                              : 28.7 KiB (0%)
  389. Language                                 : Turkish
  390. Default                                  : No
  391. Forced                                   : No
  392. Text #28
  393. ID                                       : 30
  394. Format                                   : UTF-8
  395. Codec ID                                 : S_TEXT/UTF8
  396. Codec ID/Info                            : UTF-8 Plain Text
  397. Duration                                 : 1 h 50 min
  398. Bit rate                                 : 55 b/s
  399. Count of elements                        : 1359
  400. Stream size                              : 44.6 KiB (0%)
  401. Language                                 : Vietnamese
  402. Default                                  : No
  403. Forced                                   : No
复制代码

















保举请利用qBittorrent,utorrent,transmission等标准BT软件下载!以获得最快速度。奉求保种!





回复

使用道具 举报

蓝光币
28
发表于 2022-8-5 15:53:28 | 显示全部楼层
楼主发贴辛苦了,谢谢楼主分享!我觉得蓝光电影网是注册对了!
回复 支持 1 反对 0

使用道具 举报

蓝光币
18
发表于 2022-7-16 08:36:12 | 显示全部楼层
感谢楼楼
回复

使用道具 举报

蓝光币
1
发表于 2022-7-20 21:18:49 | 显示全部楼层
楼主发贴辛苦了,谢谢楼主分享!我觉得蓝光电影网是注册对了!
回复 支持 反对

使用道具 举报

蓝光币
192
发表于 2022-7-24 09:12:48 | 显示全部楼层
楼主发贴辛苦了,谢谢楼主分享!我觉得蓝光电影网是注册对了!
回复 支持 反对

使用道具 举报

蓝光币
133
发表于 2022-7-31 20:19:04 | 显示全部楼层
楼主发贴辛苦了,谢谢楼主分享!我觉得蓝光电影网是注册对了!
回复 支持 反对

使用道具 举报

蓝光币
29
发表于 2022-8-2 12:56:51 | 显示全部楼层

楼主发贴辛苦了,谢谢楼主分享!我觉得蓝光电影网是注册对了!
回复 支持 反对

使用道具 举报

蓝光币
120
发表于 2022-8-6 21:38:39 | 显示全部楼层

楼主太厉害了!楼主,电影应该很好看我觉得蓝光电影网真是个好地方!
回复 支持 反对

使用道具 举报

蓝光币
23
发表于 2022-8-8 00:11:50 | 显示全部楼层

楼主太厉害了!楼主,电影应该很好看我觉得蓝光电影网真是个好地方!
回复 支持 反对

使用道具 举报

蓝光币
690
发表于 2022-8-8 19:58:11 | 显示全部楼层
听说很恐怖,有时间下载来看看。
回复 支持 反对

使用道具 举报

懒得打字嘛,点击右侧快捷回复 【右侧内容,后台自定义】
您需要登录后才可以回帖 登录 | 立即加入

本版积分规则

Archiver|小黑屋| 蓝光电影网 |网站地图

Copyright © 2021 Comsenz Inc. Powered by 蓝光电影网

蓝光电影网

本站内容由用户自主分享和转载自互联网,转载目的在于传递更多信息,并不代表本网赞同其观点和对其真实性负责。

如有侵权、违反国家法律政策行为,请联系我们,我们会第一时间及时清除和处理!

举报反馈邮箱:[email protected]

快速回复 返回顶部 返回列表