找回密码

蓝光电影网

查看: 178|回复: 0

[剧情] 侏罗纪世界3[简繁英特效字幕].Jurassic.World.Dominion.2022.1080p.H264.MA.WEB-DL.Atmos.DDP5.1-CHDBits 9.00GB

[复制链接]
蓝光币
7
发表于 2022-7-17 00:56:07 | 显示全部楼层 |阅读模式
侏罗纪天下3[简繁英殊效字幕].Jurassic.World.Dominion.2022.1080p.H264.MA.WEB-DL.Atmos.DDP5.1-CHDBits 9.00GB-1.jpeg

◎标  题 侏罗纪天下3
◎译  名 侏罗纪天下3:统治 / 侏罗纪天下:统治霸权(港) / 侏罗纪天下:统霸全国(台) / 侏罗纪公园6 / Jurassic Park 6
◎片  名 Jurassic World: Dominion
◎年  代 2022
◎产  地 美国
◎类  别 行动 / 科幻 / 冒险
◎语  言 英语
◎上映日期 2022-06-10(美国/中国大陆) / 2022-06-01(韩国)
◎IMDb评分 6.4/10 (2331人评价)
◎IMDb链接 https://www.imdb.com/title/tt8041270/
◎豆瓣链接 https://movie.douban.com/subject/26873582/
◎片  长 146分钟
◎导  演 科林·特莱沃若 Colin Trevorrow
◎编  剧 科林·特莱沃若 Colin Trevorrow
       艾米丽·卡迈克尔 Emily Carmichael
       德里克·康纳利 Derek Connolly
       迈克尔·克莱顿 Michael Crichton
◎演  员 克里斯·帕拉特 Chris Pratt
       布莱丝·达拉斯·霍华德 Bryce Dallas Howard
       山姆·尼尔 Sam Neill
       劳拉·邓恩 Laura Dern
       杰夫·高布伦 Jeff Goldblum
       伊莎贝拉·瑟蒙 Isabella Sermon
       马莫多·阿西 Mamoudou Athie
       丹妮艾拉·皮内达 Daniella Pineda
       迪辰·拉克曼 Dichen Lachman
       黄荣亮 B.D. Wong
       克里斯托弗·普拉哈 Kristoffer Polaha
       奥玛·希 Omar Sy
       贾斯蒂斯·史姑娘 Justice Smith
       坎贝尔·斯科特 Campbell Scott
       德汪达·怀斯 DeWanda Wise
       斯科特·黑兹 Scott Haze
       Freya Parker Freya Parker
       瓦拉达·塞图 Varada Sethu
       格利尼斯·戴维斯 Glynis Davies
       埃尔娃·崔尔 Elva Trill
       柯基·法尔考 Cokey Falkow
       伯纳多·桑托斯 Bernardo Santos
       迪米特里“维加斯”蒂瓦约 Dimitri 'Vegas' Thivaios
       小恩佐·斯奎利诺 Enzo Squillino Jr.
       特蕾莎·森登·加西亚 Teresa Cendon-Garcia
       杰克·约翰逊 Jake M. Johnson
       乔·阿泽帕迪 Joe Azzopardi
       帕特里克·克劳利 Patrick Crowley
       弗兰克·马歇尔 Frank Marshall
       史蒂文·斯皮尔伯格 Steven Spielberg
       科林·特莱沃若 Colin Trevorrow
       温斯顿·阿佐帕迪 Winston Azzopardi
       迈克·吉亚奇诺 Michael Giacchino
       约翰·施瓦兹曼 John Schwartzman
       马克·桑格 Mark Sanger
       妮娜·古德 Nina Gold
       凯文·詹金斯 Kevin Jenkins
       理查德·罗伯茨 Richard Roberts
◎简  介
  影片为《侏罗纪天下》系列的结束篇,故事的开篇设定在纳布拉尔岛被摧毁的四年后。现在,恐龙在天下各地与人类配合生活、配合捕猎。这一懦弱的平衡将重塑未来,并终极决议人类能否与史上最可怕生物同享这颗星球,并继续站在食品链的顶端。
  1. ##### MediaInfo ######
  2. General
  3. Unique ID                                : 157252297799009779980170844266273684262 (0x764DB0DFD644091126B1C8ACB7D7BB26)
  4. Complete name                            : Jurassic.World.Dominion.2022.1080p.H264.MA.WEB-DL.Atmos.DDP5.1-CHDBits.mkv
  5. Format                                   : Matroska
  6. Format version                           : Version 4
  7. File size                                : 9.00 GiB
  8. Duration                                 : 2 h 26 min
  9. Overall bit rate                         : 8 765 kb/s
  10. Movie name                               : Jurassic.World.Dominion.2022.CMRG
  11. Encoded date                             : UTC 2022-07-15 11:57:08
  12. Writing application                      : mkvmerge v64.0.0 ('Willows') 64-bit
  13. Writing library                          : libebml v1.4.2 + libmatroska v1.6.4
  14. Video
  15. ID                                       : 1
  16. Format                                   : AVC
  17. Format/Info                              : Advanced Video Codec
  18. Format profile                           : [email protected]
  19. Format settings                          : CABAC / 4 Ref Frames
  20. Format settings, CABAC                   : Yes
  21. Format settings, Reference frames        : 4 frames
  22. Codec ID                                 : V_MPEG4/ISO/AVC
  23. Duration                                 : 2 h 26 min
  24. Bit rate                                 : 8 000 kb/s
  25. Width                                    : 1 920 pixels
  26. Height                                   : 1 080 pixels
  27. Display aspect ratio                     : 16:9
  28. Frame rate mode                          : Constant
  29. Frame rate                               : 23.976 (24000/1001/53875) FPS
  30. Color space                              : YUV
  31. Chroma subsampling                       : 4:2:0
  32. Bit depth                                : 8 bits
  33. Scan type                                : Progressive
  34. Bits/(Pixel*Frame)                       : 0.161
  35. Stream size                              : 8.01 GiB (89%)
  36. Writing library                          : x264 core 164 r3094 bfc87b7
  37. Encoding settings                        : cabac=1 / ref=4 / deblock=1:-1:-1 / analyse=0x3:0x133 / me=umh / subme=9 / psy=1 / psy_rd=1.00:0.15 / mixed_ref=1 / me_range=16 / chroma_me=1 / trellis=2 / 8x8dct=1 / cqm=0 / deadzone=21,11 / fast_pskip=1 / chroma_qp_offset=-3 / threads=12 / lookahead_threads=1 / sliced_threads=0 / nr=0 / decimate=1 / interlaced=0 / NTM4NzU= / bluray_compat=0 / stitchable=1 / constrained_intra=0 / bframes=3 / b_pyramid=2 / b_adapt=2 / b_bias=0 / direct=3 / weightb=1 / open_gop=0 / weightp=2 / keyint=48 / keyint_min=4 / scenecut=0 / intra_refresh=0 / rc_lookahead=48 / rc=abr / mbtree=1 / bitrate=8000 / ratetol=1.0 / qcomp=0.60 / qpmin=0 / qpmax=69 / qpstep=4 / vbv_maxrate=8800 / vbv_bufsize=16000 / nal_hrd=none / filler=0 / NTM4NzU=LmsMAP37EqsCpk / ip_ratio=1.40 / aq=1:1.00
  38. Language                                 : English
  39. Default                                  : Yes
  40. Forced                                   : No
  41. Color range                              : Limited
  42. Color primaries                          : BT.709
  43. Transfer characteristics                 : BT.709
  44. Matrix coefficients                      : BT.709
  45. Audio
  46. ID                                       : 2
  47. Format                                   : E-AC-3 JOC
  48. Format/Info                              : Enhanced AC-3 with Joint Object Coding
  49. Commercial name                          : Dolby Digital Plus with Dolby Atmos
  50. Codec ID                                 : A_EAC3
  51. Duration                                 : 2 h 26 min
  52. Bit rate mode                            : Constant
  53. Bit rate                                 : 768 kb/s
  54. Channel(s)                               : 6 channels
  55. Channel layout                           : L R C LFE Ls Rs
  56. Sampling rate                            : 48.0 kHz
  57. Frame rate                               : 31.250 FPS (1536 SPF)
  58. Compression mode                         : Lossy
  59. Stream size                              : 807 MiB (9%)
  60. Language                                 : English
  61. Service kind                             : Complete Main
  62. Default                                  : Yes
  63. Forced                                   : No
  64. Complexity index                         : 16
  65. Number of dynamic objects                : 15
  66. Bed channel count                        : 1 channel
  67. Bed channel configuration                : LFE
  68. Text #1
  69. ID                                       : 3
  70. Format                                   : PGS
  71. Muxing mode                              : zlib
  72. Codec ID                                 : S_HDMV/PGS
  73. Codec ID/Info                            : Picture based subtitle format used on BDs/HD-DVDs
  74. Duration                                 : 2 h 17 min
  75. Bit rate                                 : 105 kb/s
  76. Count of elements                        : 5119
  77. Stream size                              : 103 MiB (1%)
  78. Title                                    : 中英殊效[email protected]
  79. Language                                 : Chinese
  80. Default                                  : Yes
  81. Forced                                   : Yes
  82. Text #2
  83. ID                                       : 4
  84. Format                                   : PGS
  85. Muxing mode                              : zlib
  86. Codec ID                                 : S_HDMV/PGS
  87. Codec ID/Info                            : Picture based subtitle format used on BDs/HD-DVDs
  88. Duration                                 : 2 h 17 min
  89. Bit rate                                 : 105 kb/s
  90. Count of elements                        : 5119
  91. Stream size                              : 104 MiB (1%)
  92. Title                                    : 繁英殊效[email protected]
  93. Language                                 : Chinese
  94. Default                                  : Yes
  95. Forced                                   : No
  96. Text #3
  97. ID                                       : 5
  98. Format                                   : PGS
  99. Muxing mode                              : zlib
  100. Codec ID                                 : S_HDMV/PGS
  101. Codec ID/Info                            : Picture based subtitle format used on BDs/HD-DVDs
  102. Duration                                 : 2 h 17 min
  103. Bit rate                                 : 80.5 kb/s
  104. Count of elements                        : 5117
  105. Stream size                              : 79.5 MiB (1%)
  106. Title                                    : 简中殊效[email protected]
  107. Language                                 : Chinese
  108. Default                                  : Yes
  109. Forced                                   : No
  110. Text #4
  111. ID                                       : 6
  112. Format                                   : PGS
  113. Muxing mode                              : zlib
  114. Codec ID                                 : S_HDMV/PGS
  115. Codec ID/Info                            : Picture based subtitle format used on BDs/HD-DVDs
  116. Duration                                 : 2 h 17 min
  117. Bit rate                                 : 81.9 kb/s
  118. Count of elements                        : 5117
  119. Stream size                              : 80.8 MiB (1%)
  120. Title                                    : 繁中殊效[email protected]
  121. Language                                 : Chinese
  122. Default                                  : Yes
  123. Forced                                   : No
  124. Text #5
  125. ID                                       : 7
  126. Format                                   : UTF-8
  127. Codec ID                                 : S_TEXT/UTF8
  128. Codec ID/Info                            : UTF-8 Plain Text
  129. Duration                                 : 2 h 26 min
  130. Bit rate                                 : 45 b/s
  131. Count of elements                        : 1820
  132. Stream size                              : 48.4 KiB (0%)
  133. Language                                 : English
  134. Default                                  : No
  135. Forced                                   : No
复制代码


侏罗纪天下3[简繁英殊效字幕].Jurassic.World.Dominion.2022.1080p.H264.MA.WEB-DL.Atmos.DDP5.1-CHDBits 9.00GB-2.gif

侏罗纪天下3[简繁英殊效字幕].Jurassic.World.Dominion.2022.1080p.H264.MA.WEB-DL.Atmos.DDP5.1-CHDBits 9.00GB-3.gif

侏罗纪天下3[简繁英殊效字幕].Jurassic.World.Dominion.2022.1080p.H264.MA.WEB-DL.Atmos.DDP5.1-CHDBits 9.00GB-4.gif

侏罗纪天下3[简繁英殊效字幕].Jurassic.World.Dominion.2022.1080p.H264.MA.WEB-DL.Atmos.DDP5.1-CHDBits 9.00GB-5.gif

侏罗纪天下3[简繁英殊效字幕].Jurassic.World.Dominion.2022.1080p.H264.MA.WEB-DL.Atmos.DDP5.1-CHDBits 9.00GB-6.gif

侏罗纪天下3[简繁英殊效字幕].Jurassic.World.Dominion.2022.1080p.H264.MA.WEB-DL.Atmos.DDP5.1-CHDBits 9.00GB-7.gif

侏罗纪天下3[简繁英殊效字幕].Jurassic.World.Dominion.2022.1080p.H264.MA.WEB-DL.Atmos.DDP5.1-CHDBits 9.00GB-8.gif






保举请利用qBittorrent,utorrent,transmission等标准BT软件下载!以获得最快速度。奉求保种!




回复

使用道具 举报

懒得打字嘛,点击右侧快捷回复 【右侧内容,后台自定义】
您需要登录后才可以回帖 登录 | 立即加入

本版积分规则

Archiver|小黑屋| 蓝光电影网 |网站地图

Copyright © 2021 Comsenz Inc. Powered by 蓝光电影网

蓝光电影网

本站内容由用户自主分享和转载自互联网,转载目的在于传递更多信息,并不代表本网赞同其观点和对其真实性负责。

如有侵权、违反国家法律政策行为,请联系我们,我们会第一时间及时清除和处理!

举报反馈邮箱:[email protected]

快速回复 返回顶部 返回列表