找回密码

查看: 1571|回复: 0

[其他] 无尽的尽头 The.End.of.The.Endless.2000.PORTUGUESE.1080p.AMZN.WEBRip.DDP2.0.x264-CBON 6.28GB

[复制链接]
蓝光币
2027
发表于 2022-7-18 20:44:44 | 显示全部楼层 |阅读模式


◎标  题 无尽的绝顶
◎译  名 The End of The Endless / 无尽之尽
◎片  名 O Fim do Sem-Fim
◎年  代 2001
◎产  地 巴西
◎类  别 记载片
◎语  言 葡萄牙语
◎上映日期 2001(巴西)
◎IMDb评分 7.1/10 (38人评价)
◎IMDb链接 https://www.imdb.com/title/tt0296635/
◎豆瓣链接 https://movie.douban.com/subject/35614414/
◎片  长 92分钟
◎导  演 Cao Guimarães Cao Guimarães
◎编  剧 Cao Guimarães Cao Guimarães
◎简  介

  O Fim do Sem Fim [The End of The Endless] is a feature documentary film that has as scenery the upcoming disappearance of some jobs and professions in Brazil. It composes an immersive picture about the creative geniality and the resistance against new cultural forms and technological trends.                                       
                                    By discussing the finality and the expected end of some process evolved in some kind of...
  1. Video
  2. ID                                       : 1
  3. Format                                   : AVC
  4. Format/Info                              : Advanced Video Codec
  5. Format profile                           : [email protected]
  6. Format settings                          : CABAC / 4 Ref Frames
  7. Format settings, CABAC                   : Yes
  8. Format settings, Reference frames        : 4 frames
  9. Codec ID                                 : V_MPEG4/ISO/AVC
  10. Duration                                 : 1 h 31 min
  11. Bit rate mode                            : Constant
  12. Bit rate                                 : 10 000 kb/s
  13. Width                                    : 1 920 pixels
  14. Height                                   : 1 080 pixels
  15. Display aspect ratio                     : 16:9
  16. Frame rate mode                          : Constant
  17. Frame rate                               : 23.976 (24000/1001/189150) FPS
  18. Color space                              : YUV
  19. Chroma subsampling                       : 4:2:0
  20. Bit depth                                : 8 bits
  21. Scan type                                : Progressive
  22. Bits/(Pixel*Frame)                       : 0.201
  23. Stream size                              : 6.13 GiB (98%)
  24. Language                                 : Portuguese
  25. Default                                  : Yes
  26. Forced                                   : No
  27. Color range                              : Limited
  28. Color primaries                          : BT.709
  29. Transfer characteristics                 : BT.709
  30. Matrix coefficients                      : BT.709
  31. Audio
  32. ID                                       : 2
  33. Format                                   : E-AC-3
  34. Format/Info                              : Enhanced AC-3
  35. Commercial name                          : Dolby Digital Plus
  36. Codec ID                                 : A_EAC3
  37. Duration                                 : 1 h 31 min
  38. Bit rate mode                            : Constant
  39. Bit rate                                 : 224 kb/s
  40. Channel(s)                               : 2 channels
  41. Channel layout                           : L R
  42. Sampling rate                            : 48.0 kHz
  43. Frame rate                               : 31.250 FPS (1536 SPF)
  44. Compression mode                         : Lossy
  45. Stream size                              : 147 MiB (2%)
  46. Language                                 : Portuguese
  47. Service kind                             : Complete Main
  48. Default                                  : Yes
  49. Forced                                   : No
  50. Text
  51. ID                                       : 3
  52. Format                                   : UTF-8
  53. Codec ID                                 : S_TEXT/UTF8
  54. Codec ID/Info                            : UTF-8 Plain Text
  55. Duration                                 : 1 h 28 min
  56. Bit rate                                 : 47 b/s
  57. Frame rate                               : 0.159 FPS
  58. Count of elements                        : 849
  59. Stream size                              : 31.2 KiB (0%)
  60. Language                                 : English
  61. Default                                  : No
  62. Forced                                   : No
复制代码







                                       
                                       

                                       
                                       
                                       




回复

使用道具 举报

懒得打字嘛,点击右侧快捷回复 【右侧内容,后台自定义】
您需要登录后才可以回帖 登录 | 立即加入

本版积分规则

Archiver| |网站地图

Copyright © 2024 Comsenz Inc. Powered by 蓝光电影网

本站内容由用户自主分享和转载自互联网,转载目的在于传递更多信息,并不代表本网赞同其观点和对其真实性负责。

如有侵权、违反国家法律政策行为,请联系我们,我们会第一时间及时清除和处理!

举报反馈邮箱:4k1080.com@gmail.com

快速回复 返回顶部 返回列表