找回密码

蓝光电影网

查看: 54|回复: 0

[2160p-WEB] 路的尽头[中文字幕].End.of.the.Road.2022.2160p.NF.WEB-DL.x265.10bit.SDR.DDP5.1.Atmos-CM 10.84GB

[复制链接]
蓝光币
1082
发表于 2023-1-10 16:18:17 | 显示全部楼层 |阅读模式


◎标  题 路的绝顶
◎译  名 死路
◎片  名 End of the Road
◎年  代 2022
◎产  地 美国
◎类  别 剧情 / 行动 / 悬疑 / 惊悚 / 犯罪
◎语  言 英语
◎上映日期 2022-09-09(美国收集)
◎IMDb评分 4.9/10 (683人评价)
◎IMDb链接 https://www.imdb.com/title/tt13655328/
◎豆瓣链接 https://movie.douban.com/subject/35743123/
◎片  长 89分钟
◎导  演 米利塞特·谢尔顿 Millicent Shelton
◎编  剧 戴维·朗格利 David Loughery
◎演  员 奎恩·拉提法 Queen Latifah
       博·布里奇斯 Beau Bridges
       卢达·克里斯 Ludacris
       弗兰西斯·李·麦克凯恩 Frances Lee McCain
       塔別孚肖恩 Tabatha Shaun
       杰西·卢肯 Jesse Luken
       基思·雅各 Keith Jardine
       崔维斯·汉默 Travis Hammer
       Amie MacKenzie Amie MacKenzie
       J·内森·西蒙斯 J. Nathan Simmons
        James Blackburn
◎简  介
  一宗谋杀案和一袋丧失的钱让新近丧夫的布兰达和家人堕入了危险,这个母亲不能不在公路流亡中极力庇护家人。
  1. Video
  2. ID                                       : 1
  3. Format                                   : HEVC
  4. Format/Info                              : High Efficiency Video Coding
  5. Format profile                           : Main [email protected]@Main
  6. Codec ID                                 : V_MPEGH/ISO/HEVC
  7. Duration                                 : 1 h 31 min
  8. Bit rate                                 : 16.2 Mb/s
  9. Width                                    : 3 840 pixels
  10. Height                                   : 2 160 pixels
  11. Display aspect ratio                     : 16:9
  12. Frame rate mode                          : Constant
  13. Frame rate                               : 24.000 FPS
  14. Color space                              : YUV
  15. Chroma subsampling                       : 4:2:0
  16. Bit depth                                : 10 bits
  17. Bits/(Pixel*Frame)                       : 0.082
  18. Stream size                              : 10.3 GiB (95%)
  19. Default                                  : Yes
  20. Forced                                   : No
  21. Color range                              : Limited
  22. Color primaries                          : BT.709
  23. Transfer characteristics                 : BT.709
  24. Matrix coefficients                      : BT.709
  25. Audio
  26. ID                                       : 2
  27. Format                                   : E-AC-3 JOC
  28. Format/Info                              : Enhanced AC-3 with Joint Object Coding
  29. Commercial name                          : Dolby Digital Plus with Dolby Atmos
  30. Codec ID                                 : A_EAC3
  31. Duration                                 : 1 h 31 min
  32. Bit rate mode                            : Constant
  33. Bit rate                                 : 768 kb/s
  34. Channel(s)                               : 6 channels
  35. Channel layout                           : L R C LFE Ls Rs
  36. Sampling rate                            : 48.0 kHz
  37. Frame rate                               : 31.250 FPS (1536 SPF)
  38. Compression mode                         : Lossy
  39. Stream size                              : 501 MiB (5%)
  40. Title                                    : English
  41. Language                                 : English
  42. Service kind                             : Complete Main
  43. Default                                  : No
  44. Forced                                   : No
  45. Complexity index                         : 16
  46. Number of dynamic objects                : 15
  47. Bed channel count                        : 1 channel
  48. Bed channel configuration                : LFE
  49. Text #1
  50. ID                                       : 3
  51. Format                                   : UTF-8
  52. Codec ID                                 : S_TEXT/UTF8
  53. Codec ID/Info                            : UTF-8 Plain Text
  54. Duration                                 : 1 h 28 min
  55. Bit rate                                 : 88 b/s
  56. Frame rate                               : 0.211 FPS
  57. Count of elements                        : 1123
  58. Stream size                              : 57.3 KiB (0%)
  59. Title                                    : Arabic
  60. Language                                 : Arabic
  61. Default                                  : No
  62. Forced                                   : No
  63. Text #2
  64. ID                                       : 4
  65. Format                                   : UTF-8
  66. Codec ID                                 : S_TEXT/UTF8
  67. Codec ID/Info                            : UTF-8 Plain Text
  68. Duration                                 : 1 h 28 min
  69. Bit rate                                 : 45 b/s
  70. Frame rate                               : 0.204 FPS
  71. Count of elements                        : 1086
  72. Stream size                              : 29.8 KiB (0%)
  73. Title                                    : Basque
  74. Language                                 : Basque
  75. Default                                  : No
  76. Forced                                   : No
  77. Text #3
  78. ID                                       : 5
  79. Format                                   : UTF-8
  80. Codec ID                                 : S_TEXT/UTF8
  81. Codec ID/Info                            : UTF-8 Plain Text
  82. Duration                                 : 1 h 28 min
  83. Bit rate                                 : 46 b/s
  84. Frame rate                               : 0.205 FPS
  85. Count of elements                        : 1091
  86. Stream size                              : 30.2 KiB (0%)
  87. Title                                    : Catalan
  88. Language                                 : Catalan
  89. Default                                  : No
  90. Forced                                   : No
  91. Text #4
  92. ID                                       : 6
  93. Format                                   : UTF-8
  94. Codec ID                                 : S_TEXT/UTF8
  95. Codec ID/Info                            : UTF-8 Plain Text
  96. Duration                                 : 1 h 28 min
  97. Bit rate                                 : 52 b/s
  98. Frame rate                               : 0.206 FPS
  99. Count of elements                        : 1098
  100. Stream size                              : 33.9 KiB (0%)
  101. Title                                    : Chinese Simplified
  102. Language                                 : Chinese
  103. Default                                  : No
  104. Forced                                   : No
  105. Text #5
  106. ID                                       : 7
  107. Format                                   : UTF-8
  108. Codec ID                                 : S_TEXT/UTF8
  109. Codec ID/Info                            : UTF-8 Plain Text
  110. Duration                                 : 1 h 28 min
  111. Bit rate                                 : 52 b/s
  112. Frame rate                               : 0.209 FPS
  113. Count of elements                        : 1113
  114. Stream size                              : 34.1 KiB (0%)
  115. Title                                    : Chinese Traditional
  116. Language                                 : Chinese
  117. Default                                  : No
  118. Forced                                   : No
  119. Text #6
  120. ID                                       : 8
  121. Format                                   : UTF-8
  122. Codec ID                                 : S_TEXT/UTF8
  123. Codec ID/Info                            : UTF-8 Plain Text
  124. Duration                                 : 1 h 28 min
  125. Bit rate                                 : 46 b/s
  126. Frame rate                               : 0.201 FPS
  127. Count of elements                        : 1071
  128. Stream size                              : 30.5 KiB (0%)
  129. Title                                    : Czech
  130. Language                                 : Czech
  131. Default                                  : No
  132. Forced                                   : No
  133. Text #7
  134. ID                                       : 9
  135. Format                                   : UTF-8
  136. Codec ID                                 : S_TEXT/UTF8
  137. Codec ID/Info                            : UTF-8 Plain Text
  138. Duration                                 : 1 h 28 min
  139. Bit rate                                 : 41 b/s
  140. Frame rate                               : 0.185 FPS
  141. Count of elements                        : 984
  142. Stream size                              : 27.3 KiB (0%)
  143. Title                                    : Danish
  144. Language                                 : Danish
  145. Default                                  : No
  146. Forced                                   : No
  147. Text #8
  148. ID                                       : 10
  149. Format                                   : UTF-8
  150. Codec ID                                 : S_TEXT/UTF8
  151. Codec ID/Info                            : UTF-8 Plain Text
  152. Duration                                 : 1 h 28 min
  153. Bit rate                                 : 46 b/s
  154. Frame rate                               : 0.177 FPS
  155. Count of elements                        : 945
  156. Stream size                              : 30.4 KiB (0%)
  157. Title                                    : Dutch
  158. Language                                 : Dutch
  159. Default                                  : No
  160. Forced                                   : No
  161. Text #9
  162. ID                                       : 11
  163. Format                                   : UTF-8
  164. Codec ID                                 : S_TEXT/UTF8
  165. Codec ID/Info                            : UTF-8 Plain Text
  166. Duration                                 : 1 h 25 min
  167. Bit rate                                 : 68 b/s
  168. Frame rate                               : 0.276 FPS
  169. Count of elements                        : 1413
  170. Stream size                              : 43.1 KiB (0%)
  171. Title                                    : English [SDH]
  172. Language                                 : English
  173. Default                                  : No
  174. Forced                                   : No
  175. Text #10
  176. ID                                       : 12
  177. Format                                   : UTF-8
  178. Codec ID                                 : S_TEXT/UTF8
  179. Codec ID/Info                            : UTF-8 Plain Text
  180. Duration                                 : 1 h 21 min
  181. Bit rate                                 : 55 b/s
  182. Frame rate                               : 0.226 FPS
  183. Count of elements                        : 1103
  184. Stream size                              : 33.1 KiB (0%)
  185. Title                                    : English
  186. Language                                 : English
  187. Default                                  : No
  188. Forced                                   : No
  189. Text #11
  190. ID                                       : 13
  191. Format                                   : UTF-8
  192. Codec ID                                 : S_TEXT/UTF8
  193. Codec ID/Info                            : UTF-8 Plain Text
  194. Duration                                 : 1 h 28 min
  195. Bit rate                                 : 45 b/s
  196. Frame rate                               : 0.198 FPS
  197. Count of elements                        : 1054
  198. Stream size                              : 29.7 KiB (0%)
  199. Title                                    : Finnish
  200. Language                                 : Finnish
  201. Default                                  : No
  202. Forced                                   : No
  203. Text #12
  204. ID                                       : 14
  205. Format                                   : UTF-8
  206. Codec ID                                 : S_TEXT/UTF8
  207. Codec ID/Info                            : UTF-8 Plain Text
  208. Duration                                 : 1 h 28 min
  209. Bit rate                                 : 49 b/s
  210. Frame rate                               : 0.205 FPS
  211. Count of elements                        : 1091
  212. Stream size                              : 32.5 KiB (0%)
  213. Title                                    : French
  214. Language                                 : French
  215. Default                                  : No
  216. Forced                                   : No
  217. Text #13
  218. ID                                       : 15
  219. Format                                   : UTF-8
  220. Codec ID                                 : S_TEXT/UTF8
  221. Codec ID/Info                            : UTF-8 Plain Text
  222. Duration                                 : 1 h 28 min
  223. Bit rate                                 : 46 b/s
  224. Frame rate                               : 0.199 FPS
  225. Count of elements                        : 1062
  226. Stream size                              : 30.4 KiB (0%)
  227. Title                                    : German
  228. Language                                 : German
  229. Default                                  : No
  230. Forced                                   : No
  231. Text #14
  232. ID                                       : 16
  233. Format                                   : UTF-8
  234. Codec ID                                 : S_TEXT/UTF8
  235. Codec ID/Info                            : UTF-8 Plain Text
  236. Duration                                 : 1 h 28 min
  237. Bit rate                                 : 42 b/s
  238. Frame rate                               : 0.204 FPS
  239. Count of elements                        : 1090
  240. Stream size                              : 27.7 KiB (0%)
  241. Title                                    : Galician
  242. Language                                 : Galician
  243. Default                                  : No
  244. Forced                                   : No
  245. Text #15
  246. ID                                       : 17
  247. Format                                   : UTF-8
  248. Codec ID                                 : S_TEXT/UTF8
  249. Codec ID/Info                            : UTF-8 Plain Text
  250. Duration                                 : 1 h 28 min
  251. Bit rate                                 : 81 b/s
  252. Frame rate                               : 0.197 FPS
  253. Count of elements                        : 1046
  254. Stream size                              : 52.6 KiB (0%)
  255. Title                                    : Greek
  256. Language                                 : Greek
  257. Default                                  : No
  258. Forced                                   : No
  259. Text #16
  260. ID                                       : 18
  261. Format                                   : UTF-8
  262. Codec ID                                 : S_TEXT/UTF8
  263. Codec ID/Info                            : UTF-8 Plain Text
  264. Duration                                 : 1 h 28 min
  265. Bit rate                                 : 78 b/s
  266. Frame rate                               : 0.219 FPS
  267. Count of elements                        : 1167
  268. Stream size                              : 51.2 KiB (0%)
  269. Title                                    : Hebrew
  270. Language                                 : Hebrew
  271. Default                                  : No
  272. Forced                                   : No
  273. Text #17
  274. ID                                       : 19
  275. Format                                   : UTF-8
  276. Codec ID                                 : S_TEXT/UTF8
  277. Codec ID/Info                            : UTF-8 Plain Text
  278. Duration                                 : 1 h 28 min
  279. Bit rate                                 : 42 b/s
  280. Frame rate                               : 0.198 FPS
  281. Count of elements                        : 1057
  282. Stream size                              : 27.6 KiB (0%)
  283. Title                                    : Croatian
  284. Language                                 : Croatian
  285. Default                                  : No
  286. Forced                                   : No
  287. Text #18
  288. ID                                       : 20
  289. Format                                   : UTF-8
  290. Codec ID                                 : S_TEXT/UTF8
  291. Codec ID/Info                            : UTF-8 Plain Text
  292. Duration                                 : 1 h 28 min
  293. Bit rate                                 : 46 b/s
  294. Frame rate                               : 0.203 FPS
  295. Count of elements                        : 1079
  296. Stream size                              : 30.4 KiB (0%)
  297. Title                                    : Hungarian
  298. Language                                 : Hungarian
  299. Default                                  : No
  300. Forced                                   : No
  301. Text #19
  302. ID                                       : 21
  303. Format                                   : UTF-8
  304. Codec ID                                 : S_TEXT/UTF8
  305. Codec ID/Info                            : UTF-8 Plain Text
  306. Duration                                 : 1 h 28 min
  307. Bit rate                                 : 45 b/s
  308. Frame rate                               : 0.206 FPS
  309. Count of elements                        : 1096
  310. Stream size                              : 29.9 KiB (0%)
  311. Title                                    : Indonesian
  312. Language                                 : Indonesian
  313. Default                                  : No
  314. Forced                                   : No
  315. Text #20
  316. ID                                       : 22
  317. Format                                   : UTF-8
  318. Codec ID                                 : S_TEXT/UTF8
  319. Codec ID/Info                            : UTF-8 Plain Text
  320. Duration                                 : 1 h 28 min
  321. Bit rate                                 : 46 b/s
  322. Frame rate                               : 0.196 FPS
  323. Count of elements                        : 1045
  324. Stream size                              : 30.3 KiB (0%)
  325. Title                                    : Italian
  326. Language                                 : Italian
  327. Default                                  : No
  328. Forced                                   : No
  329. Text #21
  330. ID                                       : 23
  331. Format                                   : UTF-8
  332. Codec ID                                 : S_TEXT/UTF8
  333. Codec ID/Info                            : UTF-8 Plain Text
  334. Duration                                 : 1 h 28 min
  335. Bit rate                                 : 47 b/s
  336. Frame rate                               : 0.223 FPS
  337. Count of elements                        : 1187
  338. Stream size                              : 30.8 KiB (0%)
  339. Title                                    : Japanese
  340. Language                                 : Japanese
  341. Default                                  : No
  342. Forced                                   : No
  343. Text #22
  344. ID                                       : 24
  345. Format                                   : UTF-8
  346. Codec ID                                 : S_TEXT/UTF8
  347. Codec ID/Info                            : UTF-8 Plain Text
  348. Duration                                 : 1 h 28 min
  349. Bit rate                                 : 59 b/s
  350. Frame rate                               : 0.205 FPS
  351. Count of elements                        : 1095
  352. Stream size                              : 38.7 KiB (0%)
  353. Title                                    : Korean
  354. Language                                 : Korean
  355. Default                                  : No
  356. Forced                                   : No
  357. Text #23
  358. ID                                       : 25
  359. Format                                   : UTF-8
  360. Codec ID                                 : S_TEXT/UTF8
  361. Codec ID/Info                            : UTF-8 Plain Text
  362. Duration                                 : 1 h 28 min
  363. Bit rate                                 : 43 b/s
  364. Frame rate                               : 0.205 FPS
  365. Count of elements                        : 1091
  366. Stream size                              : 28.5 KiB (0%)
  367. Title                                    : Malay
  368. Language                                 : Malay
  369. Default                                  : No
  370. Forced                                   : No
  371. Text #24
  372. ID                                       : 26
  373. Format                                   : UTF-8
  374. Codec ID                                 : S_TEXT/UTF8
  375. Codec ID/Info                            : UTF-8 Plain Text
  376. Duration                                 : 1 h 28 min
  377. Bit rate                                 : 44 b/s
  378. Frame rate                               : 0.200 FPS
  379. Count of elements                        : 1068
  380. Stream size                              : 29.0 KiB (0%)
  381. Title                                    : Norwegian Bokmal
  382. Language                                 : Norwegian Bokmal
  383. Default                                  : No
  384. Forced                                   : No
  385. Text #25
  386. ID                                       : 27
  387. Format                                   : UTF-8
  388. Codec ID                                 : S_TEXT/UTF8
  389. Codec ID/Info                            : UTF-8 Plain Text
  390. Duration                                 : 1 h 28 min
  391. Bit rate                                 : 45 b/s
  392. Frame rate                               : 0.204 FPS
  393. Count of elements                        : 1087
  394. Stream size                              : 29.3 KiB (0%)
  395. Title                                    : Filipino
  396. Language                                 : phi
  397. Default                                  : No
  398. Forced                                   : No
  399. Text #26
  400. ID                                       : 28
  401. Format                                   : UTF-8
  402. Codec ID                                 : S_TEXT/UTF8
  403. Codec ID/Info                            : UTF-8 Plain Text
  404. Duration                                 : 1 h 28 min
  405. Bit rate                                 : 45 b/s
  406. Frame rate                               : 0.203 FPS
  407. Count of elements                        : 1081
  408. Stream size                              : 29.6 KiB (0%)
  409. Title                                    : Polish
  410. Language                                 : Polish
  411. Default                                  : No
  412. Forced                                   : No
  413. Text #27
  414. ID                                       : 29
  415. Format                                   : UTF-8
  416. Codec ID                                 : S_TEXT/UTF8
  417. Codec ID/Info                            : UTF-8 Plain Text
  418. Duration                                 : 1 h 21 min
  419. Bit rate                                 : 70 b/s
  420. Frame rate                               : 0.282 FPS
  421. Count of elements                        : 1384
  422. Stream size                              : 42.4 KiB (0%)
  423. Title                                    : Brazilian Portuguese [SDH]
  424. Language                                 : Portuguese
  425. Default                                  : No
  426. Forced                                   : No
  427. Text #28
  428. ID                                       : 30
  429. Format                                   : UTF-8
  430. Codec ID                                 : S_TEXT/UTF8
  431. Codec ID/Info                            : UTF-8 Plain Text
  432. Duration                                 : 1 h 21 min
  433. Bit rate                                 : 59 b/s
  434. Frame rate                               : 0.230 FPS
  435. Count of elements                        : 1129
  436. Stream size                              : 35.7 KiB (0%)
  437. Title                                    : Brazilian Portuguese
  438. Language                                 : Portuguese
  439. Default                                  : No
  440. Forced                                   : No
  441. Text #29
  442. ID                                       : 31
  443. Format                                   : UTF-8
  444. Codec ID                                 : S_TEXT/UTF8
  445. Codec ID/Info                            : UTF-8 Plain Text
  446. Duration                                 : 1 h 28 min
  447. Bit rate                                 : 46 b/s
  448. Frame rate                               : 0.199 FPS
  449. Count of elements                        : 1062
  450. Stream size                              : 30.0 KiB (0%)
  451. Title                                    : Portuguese
  452. Language                                 : Portuguese
  453. Default                                  : No
  454. Forced                                   : No
  455. Text #30
  456. ID                                       : 32
  457. Format                                   : UTF-8
  458. Codec ID                                 : S_TEXT/UTF8
  459. Codec ID/Info                            : UTF-8 Plain Text
  460. Duration                                 : 1 h 28 min
  461. Bit rate                                 : 51 b/s
  462. Frame rate                               : 0.199 FPS
  463. Count of elements                        : 1060
  464. Stream size                              : 33.4 KiB (0%)
  465. Title                                    : Romanian
  466. Language                                 : Romanian
  467. Default                                  : No
  468. Forced                                   : No
  469. Text #31
  470. ID                                       : 33
  471. Format                                   : UTF-8
  472. Codec ID                                 : S_TEXT/UTF8
  473. Codec ID/Info                            : UTF-8 Plain Text
  474. Duration                                 : 1 h 28 min
  475. Bit rate                                 : 75 b/s
  476. Frame rate                               : 0.201 FPS
  477. Count of elements                        : 1073
  478. Stream size                              : 49.1 KiB (0%)
  479. Title                                    : Russian
  480. Language                                 : Russian
  481. Default                                  : No
  482. Forced                                   : No
  483. Text #32
  484. ID                                       : 34
  485. Format                                   : UTF-8
  486. Codec ID                                 : S_TEXT/UTF8
  487. Codec ID/Info                            : UTF-8 Plain Text
  488. Duration                                 : 1 h 28 min
  489. Bit rate                                 : 46 b/s
  490. Frame rate                               : 0.205 FPS
  491. Count of elements                        : 1091
  492. Stream size                              : 30.1 KiB (0%)
  493. Title                                    : European Spanish
  494. Language                                 : Spanish
  495. Default                                  : No
  496. Forced                                   : No
  497. Text #33
  498. ID                                       : 35
  499. Format                                   : UTF-8
  500. Codec ID                                 : S_TEXT/UTF8
  501. Codec ID/Info                            : UTF-8 Plain Text
  502. Duration                                 : 1 h 25 min
  503. Bit rate                                 : 64 b/s
  504. Frame rate                               : 0.257 FPS
  505. Count of elements                        : 1313
  506. Stream size                              : 40.4 KiB (0%)
  507. Title                                    : Spanish [SDH]
  508. Language                                 : Spanish
  509. Default                                  : No
  510. Forced                                   : No
  511. Text #34
  512. ID                                       : 36
  513. Format                                   : UTF-8
  514. Codec ID                                 : S_TEXT/UTF8
  515. Codec ID/Info                            : UTF-8 Plain Text
  516. Duration                                 : 1 h 21 min
  517. Bit rate                                 : 60 b/s
  518. Frame rate                               : 0.233 FPS
  519. Count of elements                        : 1142
  520. Stream size                              : 36.0 KiB (0%)
  521. Title                                    : Spanish
  522. Language                                 : Spanish
  523. Default                                  : No
  524. Forced                                   : No
  525. Text #35
  526. ID                                       : 37
  527. Format                                   : UTF-8
  528. Codec ID                                 : S_TEXT/UTF8
  529. Codec ID/Info                            : UTF-8 Plain Text
  530. Duration                                 : 1 h 28 min
  531. Bit rate                                 : 45 b/s
  532. Frame rate                               : 0.202 FPS
  533. Count of elements                        : 1075
  534. Stream size                              : 29.6 KiB (0%)
  535. Title                                    : Swedish
  536. Language                                 : Swedish
  537. Default                                  : No
  538. Forced                                   : No
  539. Text #36
  540. ID                                       : 38
  541. Format                                   : UTF-8
  542. Codec ID                                 : S_TEXT/UTF8
  543. Codec ID/Info                            : UTF-8 Plain Text
  544. Duration                                 : 1 h 28 min
  545. Bit rate                                 : 119 b/s
  546. Frame rate                               : 0.206 FPS
  547. Count of elements                        : 1096
  548. Stream size                              : 78.1 KiB (0%)
  549. Title                                    : Thai
  550. Language                                 : Thai
  551. Default                                  : No
  552. Forced                                   : No
  553. Text #37
  554. ID                                       : 39
  555. Format                                   : UTF-8
  556. Codec ID                                 : S_TEXT/UTF8
  557. Codec ID/Info                            : UTF-8 Plain Text
  558. Duration                                 : 1 h 28 min
  559. Bit rate                                 : 45 b/s
  560. Frame rate                               : 0.204 FPS
  561. Count of elements                        : 1086
  562. Stream size                              : 29.6 KiB (0%)
  563. Title                                    : Turkish
  564. Language                                 : Turkish
  565. Default                                  : No
  566. Forced                                   : No
  567. Text #38
  568. ID                                       : 40
  569. Format                                   : UTF-8
  570. Codec ID                                 : S_TEXT/UTF8
  571. Codec ID/Info                            : UTF-8 Plain Text
  572. Duration                                 : 1 h 28 min
  573. Bit rate                                 : 72 b/s
  574. Frame rate                               : 0.205 FPS
  575. Count of elements                        : 1093
  576. Stream size                              : 47.1 KiB (0%)
  577. Title                                    : Ukrainian
  578. Language                                 : Ukrainian
  579. Default                                  : No
  580. Forced                                   : No
  581. Text #39
  582. ID                                       : 41
  583. Format                                   : UTF-8
  584. Codec ID                                 : S_TEXT/UTF8
  585. Codec ID/Info                            : UTF-8 Plain Text
  586. Duration                                 : 1 h 28 min
  587. Bit rate                                 : 66 b/s
  588. Frame rate                               : 0.203 FPS
  589. Count of elements                        : 1084
  590. Stream size                              : 43.2 KiB (0%)
  591. Title                                    : Vietnamese
  592. Language                                 : Vietnamese
  593. Default                                  : No
  594. Forced                                   : No
复制代码











回复

使用道具 举报

懒得打字嘛,点击右侧快捷回复 【右侧内容,后台自定义】
您需要登录后才可以回帖 登录 | 立即加入

本版积分规则

Archiver|小黑屋| 蓝光电影网 |网站地图

Copyright © 2021 Comsenz Inc. Powered by 蓝光电影网

蓝光电影网

本站内容由用户自主分享和转载自互联网,转载目的在于传递更多信息,并不代表本网赞同其观点和对其真实性负责。

如有侵权、违反国家法律政策行为,请联系我们,我们会第一时间及时清除和处理!

举报反馈邮箱:[email protected]

快速回复 返回顶部 返回列表