找回密码

蓝光电影网

查看: 49|回复: 0

[剧情] 谍影特工[简繁英字幕].The.November.Man.2014.Bluray.1080p.x265.10bit.DDP.5.1-MiniHD 5.97GB

[复制链接]
蓝光币
7
发表于 2022-7-27 02:09:40 | 显示全部楼层 |阅读模式


◎标  题 谍影奸细
◎译  名 十一月杀手 / 谍网暗战(港) / 特务交锋(台) / 没有特务
◎片  名 The November Man
◎年  代 2014
◎产  地 美国 / 英国
◎类  别 行动 / 惊悚
◎语  言 英语 / 俄语
◎上映日期 2016-03-04(中国大陆) / 2014-08-27(美国)
◎IMDb评分 6.3/10 (66373人评价)
◎IMDb链接 https://www.imdb.com/title/tt2402157/
◎豆瓣评分 6.4/10 (14910人评价)
◎豆瓣链接 https://movie.douban.com/subject/10792320/
◎片  长 102分钟(中国大陆) / 108分钟(美国)
◎导  演 罗杰·唐纳森 Roger Donaldson
◎编  剧 迈克尔·芬奇 Michael Finch
       卡尔·盖杜谢克 Karl Gajdusek
       比尔·格兰杰 Bill Granger
◎演  员 皮尔斯·布鲁斯南 Pierce Brosnan
       卢克·布雷西 Luke Bracey
       欧嘉·柯瑞兰寇 Olga Kurylenko
       比尔·斯米托洛维奇 Bill Smitrovich
       阿米拉·特兹么希奇 Amila Terzimehic
       拉扎尔·里斯托夫斯基 Lazar Ristovski
       梅迪哈·穆斯利维奇 Mediha Musliovic
       伊莉萨·泰勒-科特尔 Eliza Taylor-Cotter
       卡特琳娜·斯柯松 Caterina Scorsone
       小田部阿基 Akie Kotabe
       威尔·帕顿 Will Patton
       帕特里克·肯尼迪 Patrick Kennedy
       Dragan Marinkovic Dragan Marinkovic
       米洛斯·蒂莫蒂杰维奇 Milos Timotijevic
       Marija Dakic Marija Dakic
       Milutin Milosevic Milutin Milosevic
       尼娜·扬科维奇 Nina Jankovic
        Nebojsa Djordjevic
       马克·莫特拉姆 Mark Mottram
       德拉加娜·阿特利亚 Dragana Atlija
       肖恩·布鲁斯南 Sean Brosnan
       罗曼·米蒂齐扬 Roman Mitichyan
       比尔·格兰杰 Bill Granger
◎标  签 行动 / 奸细 / 美国 / 特务 / 犯罪 / 2014 / 悬疑 / 惊悚
◎简  介
    彼得(皮尔斯·布鲁斯南 Pierce Brosnan 饰)曾是一位CIA的奸细,人称“十一月杀手”,他本性沉稳身手高明,深受下属和同寅们的相信。但是,彼得厌倦了全日打打杀杀东躲西藏的日子,他费了好大一番功夫,总算得以金盆洗手,只希望可以抛头露面,找一个谁也不熟悉他的地方,在安静中度过余生。                                                                      但是天不遂人愿,一位名为爱丽丝(欧嘉·柯瑞兰寇 Olga Kurylenko 饰)女子出现在了彼得的生活中。爱丽丝手中把握某些证据,直指数十年前的一个诡计,此时她的生命正遭到CIA的威胁,而已经的这起诡计,和彼得有着千丝万缕的关联。为了庇护爱丽丝,彼得成为了老店主的对手,而CIA也不逞强,派出彼得曩昔的徒弟大卫(卢克·布雷西 Luke Bracey 饰)狙击两人。
  1. ##### MediaInfo ######
  2. General
  3. Unique ID                                : 287071676053940060591512054606746105637 (0xD7F7FE63C37A7742A9D488817E103725)
  4. Complete name                            : The.November.Man.2014.Bluray.1080p.x265.10bit.DDP.5.1-MiniHD.mkv
  5. Format                                   : Matroska
  6. Format version                           : Version 4
  7. File size                                : 5.96 GiB
  8. Duration                                 : 1 h 48 min
  9. Overall bit rate                         : 7 880 kb/s
  10. Movie name                               : The November Man [2014] Blueray 1080p - FRDS
  11. Encoded date                             : UTC 2021-03-15 12:11:27
  12. Writing application                      : mkvmerge v55.0.0 ('Waiting For Space') 64-bit
  13. Writing library                          : libebml v1.4.2 + libmatroska v1.6.4
  14. Cover                                    : Yes
  15. Attachments                              : cover.jpg
  16. Video
  17. ID                                       : 1
  18. Format                                   : HEVC
  19. Format/Info                              : High Efficiency Video Coding
  20. Format profile                           : Main [email protected]@High
  21. Codec ID                                 : V_MPEGH/ISO/HEVC
  22. Duration                                 : 1 h 48 min
  23. Bit rate                                 : 6 702 kb/s
  24. Width                                    : 1 920 pixels
  25. Height                                   : 804 pixels
  26. Display aspect ratio                     : 2.40:1
  27. Frame rate mode                          : Constant
  28. Frame rate                               : 23.976 (24000/1001/53875) FPS
  29. Color space                              : YUV
  30. Chroma subsampling                       : 4:2:0
  31. Bit depth                                : 10 bits
  32. Bits/(Pixel*Frame)                       : 0.181
  33. Stream size                              : 5.07 GiB (85%)
  34. Writing library                          : x265 3.4+33-606265ac7:[Windows][MSVC 1928][64 bit] 10bit
  35. Encoding settings                        : cpuid=538751111039 / frame-threads=3 / numa-pools=14 / wpp / pmode / no-pme / no-psnr / no-ssim / log-level=2 / input-csp=1 / input-res=1920x804 / interlace=0 / total-frames=155880 / level-idc=0 / high-tier=1 / uhd-bd=0 / ref=4 / no-allow-non-conformance / no-repeat-headers / annexb / no-aud / no-hrd / info / hash=0 / no-temporal-layers / no-open-gop / min-keyint=1 / keyint=250 / gop-lookahead=0 / bframes=6 / b-adapt=2 / b-pyramid / bframe-bias=0 / rc-lookahead=80 / lookahead-slices=0 / NTM4NzU=uuDQuD2mJt9fsCf / scenecut=40 / hist-scenecut=0 / radl=0 / no-splice / no-intra-refresh / ctu=32 / min-cu-size=8 / no-rect / no-amp / max-tu-size=32 / tu-inter-depth=4 / tu-intra-depth=4 / limit-tu=0 / rdoq-level=2 / dynamic-rd=0.00 / no-ssim-rd / signhide / no-tskip / nr-intra=0 / nr-inter=0 / no-constrained-intra / strong-intra-smoothing / max-merge=5 / limit-refs=0 / no-limit-modes / me=3 / subme=7 / merange=44 / temporal-mvp / no-frame-dup / no-hme / weightp / weightb / no-analyze-src-pics / deblock=-3:-3 / no-sao / no-sao-non-deblock / rd=4 / selective-sao=0 / no-early-skip / no-rskip / no-fast-intra / no-tskip-fast / no-cu-lossless / b-intra / no-splitrd-skip / rdpenalty=0 / psy-rd=1.50 / psy-rdoq=1.00 / no-rd-refine / no-lossless / cbqpoffs=-2 / crqpoffs=-2 / rc=crf / crf=20.5 / qcomp=0.65 / qpstep=4 / stats-write=0 / stats-read=0 / vbv-maxrate=160000 / vbv-bufsize=160000 / vbv-init=0.9 / min-vbv-fullness=50.0 / max-vbv-fullness=80.0 / crf-max=0.0 / crf-min=0.0 / ipratio=1.30 / pbratio=1.20 / aq-mode=2 / aq-strength=0.90 / no-cutree / zone-count=0 / no-strict-cbr / qg-size=8 / no-rc-grain / qpmax=69 / qpmin=0 / no-const-vbv / sar=0 / overscan=0 / videoformat=5 / range=0 / colorprim=1 / transfer=1 / colormatrix=1 / chromaloc=0 / display-window=0 / cll=0,0 / min-luma=0 / max-luma=1023 / log2-max-poc-lsb=8 / vui-timing-info / vui-hrd-info / slices=1 / no-opt-qp-pps / no-opt-ref-list-length-pps / no-multi-pass-opt-rps / scenecut-bias=0.05 / hist-threshold=0.03 / no-opt-cu-delta-qp / no-aq-motion / no-hdr10 / no-hdr10-opt / no-dhdr10-opt / no-idr-recovery-sei / analysis-reuse-level=0 / analysis-save-reuse-level=0 / analysis-load-reuse-level=0 / scale-factor=0 / refine-intra=0 / refine-inter=0 / refine-mv=1 / refine-ctu-distortion=0 / no-limit-sao / ctu-info=0 / no-lowpass-dct / refine-analysis-type=0 / copy-pic=1 / max-ausize-factor=1.0 / no-dynamic-refine / no-single-sei / no-hevc-aq / no-svt / no-field / qp-adaptation-range=1.00 / scenecut-aware-qp=0conformance-window-offsets / right=0 / bottom=0 / NTM4NzU= / decoder-max-rate=0 / no-vbv-live-multi-pass
  36. Default                                  : Yes
  37. Forced                                   : No
  38. Color range                              : Limited
  39. Color primaries                          : BT.709
  40. Transfer characteristics                 : BT.709
  41. Matrix coefficients                      : BT.709
  42. Audio
  43. ID                                       : 2
  44. Format                                   : E-AC-3
  45. Format/Info                              : Enhanced AC-3
  46. Commercial name                          : Dolby Digital Plus
  47. Codec ID                                 : A_EAC3
  48. Duration                                 : 1 h 48 min
  49. Bit rate mode                            : Constant
  50. Bit rate                                 : 1 023 kb/s
  51. Channel(s)                               : 6 channels
  52. Channel layout                           : L R C LFE Ls Rs
  53. Sampling rate                            : 48.0 kHz
  54. Frame rate                               : 93.750 FPS (512 SPF)
  55. Compression mode                         : Lossy
  56. Stream size                              : 793 MiB (13%)
  57. Language                                 : English
  58. Service kind                             : Complete Main
  59. Default                                  : Yes
  60. Forced                                   : No
  61. Text #1
  62. ID                                       : 3
  63. ID in the original source medium         : 4608 (0x1200)
  64. Format                                   : PGS
  65. Muxing mode                              : zlib
  66. Codec ID                                 : S_HDMV/PGS
  67. Codec ID/Info                            : Picture based subtitle format used on BDs/HD-DVDs
  68. Duration                                 : 1 h 47 min
  69. Bit rate                                 : 48.1 kb/s
  70. Count of elements                        : 2018
  71. Stream size                              : 37.0 MiB (1%)
  72. Language                                 : English
  73. Default                                  : Yes
  74. Forced                                   : No
  75. Original source medium                   : Blu-ray
  76. Text #2
  77. ID                                       : 4
  78. ID in the original source medium         : 4609 (0x1201)
  79. Format                                   : PGS
  80. Muxing mode                              : zlib
  81. Codec ID                                 : S_HDMV/PGS
  82. Codec ID/Info                            : Picture based subtitle format used on BDs/HD-DVDs
  83. Duration                                 : 1 h 47 min
  84. Bit rate                                 : 42.4 kb/s
  85. Count of elements                        : 1917
  86. Stream size                              : 32.6 MiB (1%)
  87. Language                                 : Spanish
  88. Default                                  : No
  89. Forced                                   : No
  90. Original source medium                   : Blu-ray
  91. Text #3
  92. ID                                       : 5
  93. ID in the original source medium         : 4610 (0x1202)
  94. Format                                   : PGS
  95. Muxing mode                              : zlib
  96. Codec ID                                 : S_HDMV/PGS
  97. Codec ID/Info                            : Picture based subtitle format used on BDs/HD-DVDs
  98. Duration                                 : 1 h 44 min
  99. Bit rate                                 : 38.8 kb/s
  100. Count of elements                        : 3566
  101. Stream size                              : 29.0 MiB (0%)
  102. Title                                    : chs
  103. Language                                 : Chinese
  104. Default                                  : No
  105. Forced                                   : No
  106. Original source medium                   : Blu-ray
  107. Text #4
  108. ID                                       : 6
  109. ID in the original source medium         : 4611 (0x1203)
  110. Format                                   : PGS
  111. Muxing mode                              : zlib
  112. Codec ID                                 : S_HDMV/PGS
  113. Codec ID/Info                            : Picture based subtitle format used on BDs/HD-DVDs
  114. Duration                                 : 1 h 44 min
  115. Bit rate                                 : 41.3 kb/s
  116. Count of elements                        : 3566
  117. Stream size                              : 30.9 MiB (1%)
  118. Title                                    : cht
  119. Language                                 : Chinese
  120. Default                                  : No
  121. Forced                                   : No
  122. Original source medium                   : Blu-ray
  123. Text #5
  124. ID                                       : 7
  125. ID in the original source medium         : 4612 (0x1204)
  126. Format                                   : PGS
  127. Muxing mode                              : zlib
  128. Codec ID                                 : S_HDMV/PGS
  129. Codec ID/Info                            : Picture based subtitle format used on BDs/HD-DVDs
  130. Duration                                 : 1 h 44 min
  131. Bit rate                                 : 55.8 kb/s
  132. Count of elements                        : 3566
  133. Stream size                              : 41.7 MiB (1%)
  134. Title                                    : chs&eng
  135. Language                                 : Chinese
  136. Default                                  : No
  137. Forced                                   : No
  138. Original source medium                   : Blu-ray
  139. Text #6
  140. ID                                       : 8
  141. ID in the original source medium         : 4613 (0x1205)
  142. Format                                   : PGS
  143. Muxing mode                              : zlib
  144. Codec ID                                 : S_HDMV/PGS
  145. Codec ID/Info                            : Picture based subtitle format used on BDs/HD-DVDs
  146. Duration                                 : 1 h 44 min
  147. Bit rate                                 : 58.3 kb/s
  148. Count of elements                        : 3566
  149. Stream size                              : 43.6 MiB (1%)
  150. Title                                    : cht&eng
  151. Language                                 : Chinese
  152. Default                                  : No
  153. Forced                                   : No
  154. Original source medium                   : Blu-ray
  155. Menu
  156. 00:00:00.000                             : en:CHAPTER:01
  157. 00:05:37.170                             : en:CHAPTER:02
  158. 00:08:16.329                             : en:CHAPTER:03
  159. 00:11:00.159                             : en:CHAPTER:04
  160. 00:16:43.460                             : en:CHAPTER:05
  161. 00:20:16.006                             : en:CHAPTER:06
  162. 00:23:32.619                             : en:CHAPTER:07
  163. 00:25:50.715                             : en:CHAPTER:08
  164. 00:30:24.364                             : en:CHAPTER:09
  165. 00:35:07.396                             : en:CHAPTER:10
  166. 00:38:43.988                             : en:CHAPTER:11
  167. 00:44:36.757                             : en:CHAPTER:12
  168. 00:49:26.213                             : en:CHAPTER:13
  169. 00:52:29.437                             : en:CHAPTER:14
  170. 00:55:58.521                             : en:CHAPTER:15
  171. 01:01:46.869                             : en:CHAPTER:16
  172. 01:06:25.022                             : en:CHAPTER:17
  173. 01:10:51.038                             : en:CHAPTER:18
  174. 01:15:18.055                             : en:CHAPTER:19
  175. 01:20:56.643                             : en:CHAPTER:20
  176. 01:25:19.823                             : en:CHAPTER:21
  177. 01:30:13.783                             : en:CHAPTER:22
  178. 01:34:57.942                             : en:CHAPTER:23
  179. 01:42:54.877                             : en:CHAPTER:24
复制代码



保举请利用qBittorrent,utorrent,transmission等标准BT软件下载!以获得最快速度。奉求保种!





回复

使用道具 举报

懒得打字嘛,点击右侧快捷回复 【右侧内容,后台自定义】
您需要登录后才可以回帖 登录 | 立即加入

本版积分规则

Archiver|小黑屋| 蓝光电影网 |网站地图

Copyright © 2021 Comsenz Inc. Powered by 蓝光电影网

蓝光电影网

本站内容由用户自主分享和转载自互联网,转载目的在于传递更多信息,并不代表本网赞同其观点和对其真实性负责。

如有侵权、违反国家法律政策行为,请联系我们,我们会第一时间及时清除和处理!

举报反馈邮箱:[email protected]

快速回复 返回顶部 返回列表