找回密码

蓝光电影网

查看: 31|回复: 0

[剧情] 魔术师[中文字幕].The.Illusionist.2006.BluRay.1080p.x265.10bit-MiniHD 4.37GB

[复制链接]
蓝光币
7
发表于 2022-7-27 02:16:10 | 显示全部楼层 |阅读模式


◎标  题 把戏师
◎译  名 魔幻至尊(台) / 幻术师 / 奥秘把戏师 / 幻影师
◎片  名 The Illusionist
◎年  代 2006
◎产  地 美国 / 捷克
◎类  别 剧情 / 恋爱 / 悬疑
◎语  言 英语
◎上映日期 2006-01-22(圣丹斯电影节) / 2006-09-01(美国)
◎IMDb评分 7.6/10 (364130人评价)
◎IMDb链接 https://www.imdb.com/title/tt0443543/
◎豆瓣评分 7.6/10 (88044人评价)
◎豆瓣链接 https://movie.douban.com/subject/1467044/
◎片  长 110分钟
◎导  演 尼尔·博格 Neil Burger
◎编  剧 尼尔·博格 Neil Burger
       斯蒂文·米尔豪瑟 Steven Millhauser
◎演  员 爱德华·诺顿 Edward Norton
       保罗·吉亚玛提 Paul Giamatti
       杰西卡·贝尔 Jessica Biel
       卢夫斯·塞维尔 Rufus Sewell
       埃迪·马森 Eddie Marsan
       亚伦·泰勒-约翰逊 Aaron Taylor-Johnson
       埃莉诺·汤姆林森 Eleanor Tomlinson
       汤姆·费舍尔 Tom Fisher
       维森特·富兰克林 Vincent Franklin
◎标  签 悬疑 / 魔幻 / 美国 / EdwardNorton / 恋爱 / 剧情 / 美国电影 / 电影
◎简  介
    1900年,科学的成长还未能粉饰把戏的奥秘感,维也纳的人们对艾森海姆(爱德华·诺顿 Edward Norto饰)的把戏更是到达了痴迷的状态。这个奇异的把戏师总是能把现实和虚幻的工具混为一体,让人坠入云里雾里,思疑他能否真的具有超才能。而台下的乌尔侦察,更是想从艾森海姆每一场的表演里看出幕后的真相。                                                                      一天,一位下台接管应战的女子令艾森海姆大为震动——她就是自己昔日的情人苏菲(杰西卡·贝尔 Jessica Biel 饰)。他们已经过于品级门户之故被迫分隔,而现在,苏菲将成为王储的妻子。虽然这样,二人还是旧情复炽,没法自拔。当苏菲筹算放弃一切跟爱森海姆私奔时,悲剧却发生了,她古怪死去,一切证据都表白凶手就是由爱生恨的王储。真类似乎已经大白,可是把戏师的天下亦真亦幻,真相也随之扑朔迷离。
  1. ##### MediaInfo ######
  2. General
  3. Unique ID                                : 241040640034901603892226894571590122938 (0xB556BD17E343C138F5710C263D67FDBA)
  4. Complete name                            : The.Illusionist.2006.BluRay.1080p.x265.10bit-MiniHD.mkv
  5. Format                                   : Matroska
  6. Format version                           : Version 4
  7. File size                                : 4.36 GiB
  8. Duration                                 : 1 h 48 min
  9. Overall bit rate                         : 5 734 kb/s
  10. Encoded date                             : UTC 2021-03-16 00:56:44
  11. Writing application                      : mkvmerge v55.0.0 ('Waiting For Space') 64-bit
  12. Writing library                          : libebml v1.4.2 + libmatroska v1.6.4
  13. Video
  14. ID                                       : 1
  15. Format                                   : HEVC
  16. Format/Info                              : High Efficiency Video Coding
  17. Format profile                           : Main [email protected]@Main
  18. Codec ID                                 : V_MPEGH/ISO/HEVC
  19. Duration                                 : 1 h 48 min
  20. Bit rate                                 : 5 079 kb/s
  21. Width                                    : 1 920 pixels
  22. Height                                   : 1 080 pixels
  23. Display aspect ratio                     : 16:9
  24. Frame rate mode                          : Constant
  25. Frame rate                               : 23.976 (24000/1001/53875) FPS
  26. Color space                              : YUV
  27. Chroma subsampling                       : 4:2:0
  28. Bit depth                                : 10 bits
  29. Bits/(Pixel*Frame)                       : 0.102
  30. Stream size                              : 3.86 GiB (89%)
  31. Writing library                          : x265 3.4+13-g729a838d3+38:[Windows][GCC 10.2.0][64 bit] Asuna 10bit+8bit+12bit
  32. Encoding settings                        : rc=crf / crf=19.0000 / qcomp=0.70 / qpstep=4 / stats-write=0 / stats-read=0 / no-lossless / no-cu-lossless / aq-mode=2 / aq-strength=0.80 / cbqpoffs=-2 / crqpoffs=-2 / ipratio=1.40 / pbratio=1.30 / psy-rd=0.00 / psy-rdoq=5.00 / deblock=-1:-1 / ref=5 / limit-refs=2 / limit-modes / bframes=8 / b-adapt=2 / bframe-bias=0 / b-pyramid / b-intra / weightp / weightb / min-keyint=1 / max-keyint=360 / rc-lookahead=60 / gop-lookahead=0 / NTM4NzU=uuDQuD2mJt9fsCf / scenecut=40 / hist-scenecut=0 / radl=0 / max-cu-size=32 / min-cu-size=8 / me=3 / subme=5 / merange=25 / rdoq-level=1 / rd=4 / rdpenalty=1 / dynamic-rd=0.00 / no-rd-refine / ----- / cutree / no-sao / rect / no-amp / no-open-gop / wpp / no-pmode / no-pme / no-psnr / no-ssim / nr-intra=0 / nr-inter=0 / no-constrained-intra / no-strong-intra-smoothing / max-tu-size=16 / tu-inter-depth=2 / tu-intra-depth=2 / limit-tu=0 / qg-size=16 / qpmax=69 / qpmin=0 / ----- / cpuid=538751111039 / frame-threads=2 / numa-pools=4 / log-level=2 / input-csp=1 / input-res=1920x1080 / interlace=0 / level-idc=0 / high-tier=1 / uhd-bd=0 / no-allow-non-conformance / no-repeat-headers / no-aud / no-hrd / info / hash=0 / no-temporal-layers / lookahead-slices=0 / no-splice / no-intra-refresh / ssim-rd / signhide / no-tskip / max-merge=5 / temporal-mvp / no-frame-dup / no-hme / no-analyze-src-pics / no-sao-non-deblock / selective-sao=0 / no-early-skip / rskip / no-fast-intra / no-tskip-fast / no-splitrd-skip / zone-count=0 / no-strict-cbr / no-rc-grain / no-const-vbv / sar=1 / overscan=0 / videoformat=5 / range=0 / colorprim=1 / transfer=2 / colormatrix=2 / chromaloc=0 / display-window=0 / cll=0,0 / min-luma=0 / max-luma=1023 / log2-max-poc-lsb=8 / vui-timing-info / vui-hrd-info / slices=1 / no-opt-qp-pps / no-opt-ref-list-length-pps / no-multi-pass-opt-rps / scenecut-bias=0.05 / hist-threshold=0.01 / no-opt-cu-delta-qp / no-aq-motion / no-hdr10 / no-hdr10-opt / no-dhdr10-opt / no-idr-recovery-sei / analysis-reuse-level=0 / analysis-save-reuse-level=0 / analysis-load-reuse-level=0 / scale-factor=0 / refine-intra=0 / refine-inter=0 / refine-mv=1 / refine-ctu-distortion=0 / no-limit-sao / ctu-info=0 / no-lowpass-dct / refine-analysis-type=0 / copy-pic=1 / max-ausize-factor=1.0 / no-dynamic-refine / no-single-sei / no-hevc-aq / no-svt / no-field / qp-adaptation-range=1.00 / no-scenecut-aware-qpconformance-window-offsets / right=0 / bottom=0 / NTM4NzU= / decoder-max-rate=0
  33. Default                                  : Yes
  34. Forced                                   : No
  35. Color range                              : Limited
  36. Color primaries                          : BT.709
  37. Audio
  38. ID                                       : 2
  39. Format                                   : AC-3
  40. Format/Info                              : Audio Coding 3
  41. Commercial name                          : Dolby Digital
  42. Codec ID                                 : A_AC3
  43. Duration                                 : 1 h 48 min
  44. Bit rate mode                            : Constant
  45. Bit rate                                 : 640 kb/s
  46. Channel(s)                               : 6 channels
  47. Channel layout                           : L R C LFE Ls Rs
  48. Sampling rate                            : 48.0 kHz
  49. Frame rate                               : 31.250 FPS (1536 SPF)
  50. Compression mode                         : Lossy
  51. Stream size                              : 499 MiB (11%)
  52. Language                                 : English
  53. Service kind                             : Complete Main
  54. Default                                  : Yes
  55. Forced                                   : No
  56. Text
  57. ID                                       : 3
  58. Format                                   : PGS
  59. Muxing mode                              : zlib
  60. Codec ID                                 : S_HDMV/PGS
  61. Codec ID/Info                            : Picture based subtitle format used on BDs/HD-DVDs
  62. Duration                                 : 1 h 42 min
  63. Bit rate                                 : 26.7 kb/s
  64. Count of elements                        : 1784
  65. Stream size                              : 19.7 MiB (0%)
  66. Language                                 : Chinese
  67. Default                                  : Yes
  68. Forced                                   : Yes
  69. Menu
  70. 00:00:00.000                             : en:00:00:00.000
  71. 00:06:18.169                             : en:00:06:18.169
  72. 00:13:05.159                             : en:00:13:05.159
  73. 00:19:07.646                             : en:00:19:07.646
  74. 00:25:02.126                             : en:00:25:02.126
  75. 00:28:55.108                             : en:00:28:55.108
  76. 00:32:51.845                             : en:00:32:51.845
  77. 00:37:39.883                             : en:00:37:39.883
  78. 00:44:51.230                             : en:00:44:51.230
  79. 00:51:10.693                             : en:00:51:10.693
  80. 00:57:36.828                             : en:00:57:36.828
  81. 01:03:41.901                             : en:01:03:41.901
  82. 01:09:34.253                             : en:01:09:34.253
  83. 01:16:12.359                             : en:01:16:12.359
  84. 01:22:32.573                             : en:01:22:32.573
  85. 01:25:48.769                             : en:01:25:48.769
  86. 01:29:07.467                             : en:01:29:07.467
  87. 01:32:59.282                             : en:01:32:59.282
  88. 01:36:48.511                             : en:01:36:48.511
  89. 01:40:17.178                             : en:01:40:17.178
  90. 01:44:22.965                             : en:01:44:22.965
复制代码

















保举请利用qBittorrent,utorrent,transmission等标准BT软件下载!以获得最快速度。奉求保种!





回复

使用道具 举报

懒得打字嘛,点击右侧快捷回复 【右侧内容,后台自定义】
您需要登录后才可以回帖 登录 | 立即加入

本版积分规则

Archiver|小黑屋| 蓝光电影网 |网站地图

Copyright © 2021 Comsenz Inc. Powered by 蓝光电影网

蓝光电影网

本站内容由用户自主分享和转载自互联网,转载目的在于传递更多信息,并不代表本网赞同其观点和对其真实性负责。

如有侵权、违反国家法律政策行为,请联系我们,我们会第一时间及时清除和处理!

举报反馈邮箱:[email protected]

快速回复 返回顶部 返回列表