找回密码

蓝光电影网

查看: 30|回复: 1

[剧情] 花束般的恋爱[中文字幕].We.Made.a.Beautiful.Bouquet.2021.1080p.BluRay.DDP5.1.x264-MOMOHD 13.45GB

[复制链接]
蓝光币
7
发表于 2022-7-27 02:16:42 | 显示全部楼层 |阅读模式


◎标  题 花束般的恋爱
◎译  名 她和他的恋爱花期(港) / Hanataba mitaina koi o shita / We Made a Beautiful Bouquet / I Fell in Love Like A Flower Bouquet
◎片  名 花束みたいな恋をした
◎年  代 2021
◎产  地 日本
◎类  别 剧情 / 恋爱
◎语  言 日语
◎上映日期 2021-01-29(日本)
◎IMDb评分 7.2/10 (951人评价)
◎IMDb链接 https://www.imdb.com/title/tt11219254/
◎豆瓣评分 8.7/10 (127769人评价)
◎豆瓣链接 https://movie.douban.com/subject/34874432/
◎片  长 124分钟
◎导  演 土井裕泰 Nobuhiro Doi
◎编  剧 坂元裕二 Yûji Sakamoto
◎演  员 菅田将晖 Masaki Suda
       有村架纯 Kasumi Arimura
       细田佳央太 Kanata Hosoda
       清原果耶 Kaya Kiyohara
       小田切让 Jô Odagiri
       押井守 Mamoru Oshii
       户田惠子 Keiko Toda
       岩松了 Ryô Iwamatsu
       小林薰 Kaoru Kobayashi
       韩英惠 Hanae Kan
       中崎敏
       小久保寿人 KOKUBO TOSHIHITO
       泷内公美 Kumi Takiuchi
       森优作 Yusaku Mori
       古川琴音 Kotone Furukawa
       篠原悠伸
       八木亚里纱 Arisa Yagi
       佐藤宽太 Kanta Sato
       冈部崇 Takasi Okabe
       萩原实里 Minori Hagiwara
       福山翔大 Shodai Fukuyama
       萩原利久 Riku Hagiwara
       片山友希 Yuki Katayama
       宇野祥平 Shôhei Uno
       佐藤玲 Ryo Sato
       水泽绅吾 Shingo Mizusawa
       穗志萌香 Moeka Hoshi
       池田良 Ryô Ikeda
       大下浩人 Hiroto Oshita
◎标  签 日本 / 日本电影 / 菅田将晖 / 菅田将暉 / 日影 / 有村架纯 / 坂元裕二 / 有村架純
◎简  介
  影片是《四重奏》导演土井裕泰,编剧坂元裕二的大银幕首部合作作品。故事报告男女仆人公因在东京明大前站错过末班电车而偶然了解,以后展开时代、时候、地址、全数的偶然都像命运一样同步的5年恋爱,展现了他们在既非大人也非孩童的期间里,苍茫前行的样子。
  1. ##### MediaInfo ######
  2. General
  3. Unique ID                                : 90985708872258437275249133913772964682 (0x447335CA9C3E2DD265AD87A0D97CBB4A)
  4. Complete name                            : We.Made.a.Beautiful.Bouquet.2021.1080p.BluRay.DDP5.1.x264-MOMOHD.mkv
  5. Format                                   : Matroska
  6. Format version                           : Version 4
  7. File size                                : 13.5 GiB
  8. Duration                                 : 2 h 3 min
  9. Overall bit rate                         : 15.6 Mb/s
  10. Encoded date                             : UTC 2022-07-25 02:36:12
  11. Writing application                      : mkvmerge v68.0.0 ('The Curtain') 64-bit
  12. Writing library                          : libebml v1.4.2 + libmatroska v1.6.4
  13. Video
  14. ID                                       : 1
  15. Format                                   : AVC
  16. Format/Info                              : Advanced Video Codec
  17. Format profile                           : [email protected]
  18. Format settings                          : CABAC / 4 Ref Frames
  19. Format settings, CABAC                   : Yes
  20. Format settings, Reference frames        : 4 frames
  21. Codec ID                                 : V_MPEG4/ISO/AVC
  22. Duration                                 : 2 h 3 min
  23. Bit rate                                 : 14.5 Mb/s
  24. Width                                    : 1 920 pixels
  25. Height                                   : 1 038 pixels
  26. Display aspect ratio                     : 1.85:1
  27. Frame rate mode                          : Constant
  28. Frame rate                               : 23.976 (24000/1001/53875) FPS
  29. Color space                              : YUV
  30. Chroma subsampling                       : 4:2:0
  31. Bit depth                                : 8 bits
  32. Scan type                                : Progressive
  33. Bits/(Pixel*Frame)                       : 0.303
  34. Stream size                              : 12.5 GiB (93%)
  35. Writing library                          : x264 core 164 r3075+55M 97d28bb t_mod_New [(8 & 10)[email protected] X86_64]
  36. Encoding settings                        : cabac=1 / ref=1 / deblock=1:-3:-3 / analyse=0x3:0x113 / me=umh / subme=11 / psy=1 / fade_compensate=0.00 / psy_rd=1.02:0.00 / mixed_ref=0 / me_range=32 / chroma_me=1 / trellis=2 / 8x8dct=1 / cqm=0 / deadzone=21,11 / fast_pskip=0 / chroma_qp_offset=-2 / threads=18 / lookahead_threads=4 / sliced_threads=0 / nr=0 / decimate=0 / interlaced=0 / NTM4NzU= / bluray_compat=0 / constrained_intra=0 / fgo=0 / bframes=16 / b_pyramid=2 / b_adapt=2 / b_bias=0 / direct=3 / weightb=1 / open_gop=0 / weightp=1 / keyint=250 / keyint_min=23 / NTM4NzU=uuDQuD2mJt9fsCf / scenecut=40 / intra_refresh=0 / rc_lookahead=250 / rc=crf / mbtree=0 / crf=16.0000 / qcomp=0.60 / qpmin=0:0:0 / qpmax=69:69:69 / qpstep=4 / vbv_maxrate=62500 / vbv_bufsize=78125 / crf_max=0.0 / nal_hrd=none / filler=0 / NTM4NzU=LmsMAP37EqsCpk / ip_ratio=1.30 / pb_ratio=1.20 / aq=3:0.75 / aq-sensitivity=10.00 / aq-factor=1.00:1.00:1.00 / aq2=0 / aq3=0 / zones=1,889,crf=22/172125,177568,crf=22
  37. Default                                  : Yes
  38. Forced                                   : No
  39. Color range                              : Limited
  40. Color primaries                          : BT.709
  41. Matrix coefficients                      : BT.709
  42. Audio
  43. ID                                       : 2
  44. Format                                   : E-AC-3
  45. Format/Info                              : Enhanced AC-3
  46. Commercial name                          : Dolby Digital Plus
  47. Codec ID                                 : A_EAC3
  48. Duration                                 : 2 h 3 min
  49. Bit rate mode                            : Constant
  50. Bit rate                                 : 1 024 kb/s
  51. Channel(s)                               : 6 channels
  52. Channel layout                           : L R C LFE Ls Rs
  53. Sampling rate                            : 48.0 kHz
  54. Frame rate                               : 31.250 FPS (1536 SPF)
  55. Compression mode                         : Lossy
  56. Stream size                              : 904 MiB (7%)
  57. Language                                 : Japanese
  58. Service kind                             : Complete Main
  59. Default                                  : Yes
  60. Forced                                   : No
  61. Text #1
  62. ID                                       : 3
  63. Format                                   : ASS
  64. Codec ID                                 : S_TEXT/ASS
  65. Codec ID/Info                            : Advanced Sub Station Alpha
  66. Duration                                 : 1 h 58 min
  67. Bit rate                                 : 82 b/s
  68. Count of elements                        : 1722
  69. Compression mode                         : Lossless
  70. Stream size                              : 71.7 KiB (0%)
  71. Title                                    : Simplified Chinese
  72. Language                                 : Chinese
  73. Default                                  : Yes
  74. Forced                                   : No
  75. Text #2
  76. ID                                       : 4
  77. Format                                   : ASS
  78. Codec ID                                 : S_TEXT/ASS
  79. Codec ID/Info                            : Advanced Sub Station Alpha
  80. Duration                                 : 1 h 58 min
  81. Bit rate                                 : 82 b/s
  82. Count of elements                        : 1722
  83. Compression mode                         : Lossless
  84. Stream size                              : 71.7 KiB (0%)
  85. Title                                    : Traditional Chinese
  86. Language                                 : Chinese
  87. Default                                  : No
  88. Forced                                   : No
  89. Text #3
  90. ID                                       : 5
  91. Format                                   : PGS
  92. Muxing mode                              : zlib
  93. Codec ID                                 : S_HDMV/PGS
  94. Codec ID/Info                            : Picture based subtitle format used on BDs/HD-DVDs
  95. Duration                                 : 2 h 2 min
  96. Bit rate                                 : 193 kb/s
  97. Count of elements                        : 11947
  98. Stream size                              : 169 MiB (1%)
  99. Title                                    : Japanese SDH
  100. Language                                 : Japanese
  101. Default                                  : No
  102. Forced                                   : No
  103. Menu
  104. 00:00:00.000                             : en:Chapter 01
  105. 00:11:31.232                             : en:Chapter 02
  106. 00:21:32.416                             : en:Chapter 03
  107. 00:30:31.955                             : en:Chapter 04
  108. 00:41:26.359                             : en:Chapter 05
  109. 00:53:47.599                             : en:Chapter 06
  110. 01:03:31.057                             : en:Chapter 07
  111. 01:17:43.158                             : en:Chapter 08
  112. 01:22:13.345                             : en:Chapter 09
  113. 01:30:18.413                             : en:Chapter 10
  114. 01:37:26.257                             : en:Chapter 11
  115. 01:56:58.428                             : en:Chapter 12
复制代码

















保举请利用qBittorrent,utorrent,transmission等标准BT软件下载!以获得最快速度。奉求保种!





回复

使用道具 举报

蓝光币
0
发表于 7 天前 | 显示全部楼层
楼主发贴辛苦了,谢谢楼主分享!我觉得蓝光电影网是注册对了!
回复 支持 反对

使用道具 举报

懒得打字嘛,点击右侧快捷回复 【右侧内容,后台自定义】
您需要登录后才可以回帖 登录 | 立即加入

本版积分规则

Archiver|小黑屋| 蓝光电影网 |网站地图

Copyright © 2021 Comsenz Inc. Powered by 蓝光电影网

蓝光电影网

本站内容由用户自主分享和转载自互联网,转载目的在于传递更多信息,并不代表本网赞同其观点和对其真实性负责。

如有侵权、违反国家法律政策行为,请联系我们,我们会第一时间及时清除和处理!

举报反馈邮箱:[email protected]

快速回复 返回顶部 返回列表